<?xml version="1.0" standalone="no"?>
<!DOCTYPE svg PUBLIC "-//W3C//DTD SVG 1.1//EN" "http://www.w3.org/Graphics/SVG/1.1/DTD/svg11.dtd" >
<svg xmlns="http://www.w3.org/2000/svg">
<metadata>
This is a custom SVG webfont generated by Font Squirrel.
Designer    : Svetoslav Simov
Foundry     : Svetoslav Simov
Foundry URL : http://fontfabric.com/
</metadata>
<defs>
<font id="webfontaRw2LFyj" horiz-adv-x="472" >
<font-face units-per-em="1000" ascent="750" descent="-250" />
<missing-glyph horiz-adv-x="238" />
<glyph unicode=" "  horiz-adv-x="238" />
<glyph unicode="&#x09;" horiz-adv-x="238" />
<glyph unicode="&#xa0;" horiz-adv-x="238" />
<glyph unicode="!" horiz-adv-x="184" d="M120 72v-72h-57v72h57zM119 702v-550h-53v550h53z" />
<glyph unicode="&#x22;" horiz-adv-x="224" d="M178 702v-166h-48v166h48zM86 702v-166h-48v166h48z" />
<glyph unicode="'" horiz-adv-x="156" d="M106 702v-166h-48v166h48z" />
<glyph unicode="(" horiz-adv-x="223" d="M191 -119h-50q-45 91 -62 263q-8 85 -8.5 171t8.5 171q17 172 62 263h50q-45 -91 -62 -263q-8 -85 -8.5 -171t8.5 -171q17 -172 62 -263z" />
<glyph unicode=")" horiz-adv-x="239" d="M90 -119h-50q45 91 62 263q8 85 8 171t-8 171q-17 172 -62 263h50q45 -91 62 -263q9 -85 8.5 -171t-8.5 -171q-17 -172 -62 -263z" />
<glyph unicode="+" horiz-adv-x="415" d="M233 444v-133h136v-48h-136v-136h-48v136h-133v48h133v133h48z" />
<glyph unicode="," horiz-adv-x="224" d="M80 2v67h60v-67q0 -54 -44 -54q-5 0 -10 1v22q8 -1 13.5 9.5t2.5 21.5h-22z" />
<glyph unicode="-" horiz-adv-x="317" d="M43 299h215v-50h-215v50z" />
<glyph unicode="." horiz-adv-x="205" d="M67 -1v68h60v-68h-60z" />
<glyph unicode="0" horiz-adv-x="522" d="M420 133l1 442q0 31 -29 53t-70 30q-29 6 -60 6q-13 0 -28 -2q-46 -3 -80 -18l253 -555q13 17 13 44zM365 61l-252 553q-13 -18 -13 -39v-442q0 -13 3 -25q17 -48 108 -62q30 -4 56 -4q55 0 98 19zM49 129v446q0 51 43.5 86t105.5 43q31 4 62 4l62 -4q62 -8 105.5 -43 t43.5 -86v-446q0 -52 -43.5 -87.5t-105.5 -43.5q-31 -4 -62 -4l-62 4q-62 8 -105.5 43.5t-43.5 87.5z" />
<glyph unicode="1" horiz-adv-x="243" d="M27 700h157v-700h-51v648h-106v52z" />
<glyph unicode="2" horiz-adv-x="491" d="M90 128v-46q0 -22 8 -28t31 -6h325v-48h-326q-48 0 -68 17t-20 65v47q0 47 19.5 85t55.5 65t70 45.5t83 41.5t73 37q69 40 67 123q0 58 -47 97q-49 40 -115 40q-38 0 -81 -13q-30 -8 -51.5 -32t-22.5 -55h-50q0 45 28 78t73 49h1q43 16 98 16q15 0 32 -1q75 -6 120 -43 q64 -55 65 -135q0 -112 -92 -164q-25 -15 -70 -35t-75.5 -35.5t-63 -38t-49.5 -54.5t-18 -72z" />
<glyph unicode="3" d="M428 566v-106q0 -71 -73 -110q73 -37 73 -109v-106q0 -64 -55.5 -99t-125.5 -36h-208v51h203v-1l4 1q47 0 89 21.5t42 62.5v106q0 41 -42.5 64t-88.5 23h-4h-203v44h203h4q46 0 88.5 23.5t42.5 64.5v106q0 41 -42 62.5t-89 21.5h-4h-203v51l208 -1q69 0 125 -35t56 -99z " />
<glyph unicode="4" horiz-adv-x="503" d="M404 229v471h50v-700h-50v179h-281q-65 1 -87 55q-8 21 -8 41q0 33 23 66l174 359h59l-190 -384q-13 -17 -13 -38q0 -8 3 -18q7 -31 41 -31h279z" />
<glyph unicode="5" horiz-adv-x="530" d="M59 129h49q0 -55 75 -76q35 -10 85 -11h4q47 0 81 10q35 9 57 28.5t23 48.5v165q-1 31 -27.5 52.5t-67.5 28.5q-32 6 -70 6h-122q-43 0 -66 24t-23 68v227h406v-51h-355v-173q0 -25 9.5 -35t33.5 -10h114q44 0 82 -7q59 -11 97 -44.5t38 -85.5v-165q0 -48 -32.5 -79.5 t-84.5 -45.5q-37 -11 -92 -11q-2 0 -5 1q-58 0 -98 11q-50 14 -81 46t-30 78z" />
<glyph unicode="6" horiz-adv-x="519" d="M362 5q-40 -11 -98 -11q-3 -1 -5 -1q-55 0 -92 11q-52 14 -84 46t-33 79v440q0 55 38.5 88t96.5 44q41 8 79 8q52 0 100 -14t79 -46t30 -79l-49 1q0 55 -75 77q-39 11 -83 11q-35 0 -72 -7q-39 -7 -66.5 -27.5t-27.5 -55.5v-193h174q32 0 64 -6q56 -10 95.5 -43.5 t39.5 -87.5v-107q0 -95 -111 -127zM276 326h-176v-90v-107h-1q1 -28 23 -47.5t58 -29.5q35 -9 84.5 -9t84.5 10q75 22 75 78l-1 108q0 35 -28 55.5t-66 27.5q-24 4 -53 4z" />
<glyph unicode="7" horiz-adv-x="478" d="M25 650v50h337q66 -1 88 -56q8 -20 8 -40q0 -33 -23 -66l-322 -538h-59l338 563q12 17 12 37q0 9 -2 18q-8 32 -41 32h-336z" />
<glyph unicode="8" horiz-adv-x="545" d="M484 575v-110q0 -39 -25.5 -68.5t-67.5 -42.5q44 -8 75 -36.5t31 -71.5v-118q0 -64 -68.5 -100t-156.5 -36t-157 36t-69 100v118q0 42 31 71t75 37q-42 13 -67 42.5t-25 68.5v110q0 64 63 100t149 36t149 -36t63 -100zM272 661q-66 0 -114 -23t-48 -63v-110 q0 -40 48.5 -64.5t113.5 -24.5q64 0 112.5 24.5t48.5 64.5v110q0 40 -48 63t-113 23zM272 336q-66 0 -120.5 -25t-54.5 -65v-118q0 -40 54 -63t121 -23t121 23t54 63v118q0 40 -54.5 65t-120.5 25z" />
<glyph unicode="9" horiz-adv-x="519" d="M156 697q40 11 98 11q3 1 6 1q55 0 92 -11q52 -14 84 -45.5t33 -79.5v-442q0 -54 -39 -87t-96 -44q-41 -8 -80 -8q-51 0 -100 14q-48 14 -78.5 45.5t-30.5 78.5h50q0 -56 74 -77q40 -11 84 -11q35 0 72 7q38 7 66 27.5t28 55.5v181h-174q-38 0 -64 5q-57 11 -96.5 44.5 t-39.5 87.5l1 120q-1 95 110 127zM243 363h176v104v106q0 29 -22 48.5t-58 28.5q-33 10 -80 10h-5q-49 -1 -84 -11q-75 -20 -75 -78v-121q1 -35 29 -55.5t66 -27.5q24 -4 53 -4z" />
<glyph unicode=":" horiz-adv-x="215" d="M67 364v68h60v-68h-60zM67 -1v68h60v-68h-60z" />
<glyph unicode=";" horiz-adv-x="197" d="M67 364v68h60v-68h-60zM66 1v67h60v-67q0 -54 -44 -54q-5 0 -10 1v22q8 -1 13.5 9.5t2.5 21.5h-22z" />
<glyph unicode="=" horiz-adv-x="491" d="M60 299h349v-50h-349v50zM60 443h349v-50h-349v50z" />
<glyph unicode="?" horiz-adv-x="483" d="M250 180v-65h-50v66v47q0 19 3.5 37.5t4 28t8.5 22.5l12 17q2 4 17.5 15.5t21 15t29.5 17t35 20.5q69 41 67 127q0 58 -47 97t-114 39q-38 0 -82 -12q-30 -9 -51.5 -33t-22.5 -55h-50q0 45 28.5 78.5t73.5 48.5q43 16 98 16q15 0 32 -1q75 -6 120 -43q65 -53 65 -140 q0 -109 -92 -161l-36 -20q-51 -28 -60 -45.5t-10 -91.5v-25zM197 -1v59h55v-59h-55z" />
<glyph unicode="@" horiz-adv-x="500" />
<glyph unicode="A" horiz-adv-x="534" d="M411 675q62 -37 62 -103h1v-572h-50v274h-324v-274h-50v572q0 66 62 103q55 33 150 33t149 -33zM138 633q-38 -23 -38 -61v-248h324v248q0 37 -39 61q-43 26 -124 26t-123 -26z" />
<glyph unicode="B" horiz-adv-x="534" d="M99 650v-270h188q57 0 92 22q35 21 35 57v114q0 35 -35 55q-37 22 -91 22h-189zM289 330h-1h-189v-280h189q63 0 106 26q43 25 43 66v1v95q0 41 -43 66q-40 26 -105 26zM404 359l-3 -2q11 -5 19 -10q66 -40 66 -109v-95v-1q0 -69 -66 -109q-54 -33 -132 -33h-239l1 700 h238q67 0 116 -29q59 -34 60 -98v-116q-1 -64 -60 -98z" />
<glyph unicode="C" horiz-adv-x="516" d="M424 131l50 1q0 -47 -30.5 -79t-80.5 -46q-40 -11 -99 -11q-2 -1 -5 -1q-55 0 -92 11q-52 14 -84 46t-33 79v439q1 52 38.5 85.5t96.5 44.5q32 6 73 6h22q54 -2 92 -14q102 -35 102 -122h-50q0 52 -67 75q-41 13 -89 13q-35 0 -74 -7q-41 -8 -67.5 -29t-26.5 -52v-439 q0 -28 22 -47.5t58 -29.5q35 -9 84.5 -9t84.5 10q75 21 75 76z" />
<glyph unicode="D" horiz-adv-x="529" d="M420 115q4 11 4 451q0 41 -42.5 63t-89.5 22h-4h-1h-186v-600h185q43 0 83 15.5t51 48.5zM286 0h-236v701h243q70 0 126 -35t56 -100v-430q0 -66 -57.5 -101t-131.5 -35z" />
<glyph unicode="E" d="M100 651v-275h322v-51h-322q0 -200 4 -211q11 -32 51 -47.5t82 -15.5h185v-51h-185v1h-4q-70 0 -125 33q-58 35 -58 101v566h372v-50h-322z" />
<glyph unicode="F" horiz-adv-x="460" d="M49 701h374v-50h-323v-279h273v-51h-273q0 -6 -0.5 -148t-0.5 -173h-50v701z" />
<glyph unicode="G" horiz-adv-x="527" d="M474 346v-220q0 -46 -30.5 -78t-80.5 -46q-41 -12 -98 -12t-98 11q-52 14 -84 45.5t-33 79.5v448v1q1 52 38.5 85.5t96.5 44.5q43 8 82 8q57 0 105 -17q47 -15 74.5 -46t27.5 -76l-50 1q0 51 -67 74q-41 14 -90 14q-34 0 -73 -7q-41 -8 -67.5 -29t-26.5 -53v-448 q0 -29 22 -48.5t58 -28.5q34 -10 80 -10q3 0 5 1q49 0 84 10q75 21 75 76v174h-138v46h188z" />
<glyph unicode="H" horiz-adv-x="514" d="M409 324h-310v-324h-49v701h49v-327h310v327h50v-701h-50v324z" />
<glyph unicode="I" horiz-adv-x="179" d="M63 701h50v-701h-50v701z" />
<glyph unicode="J" horiz-adv-x="414" d="M309 700h52v-573q0 -52 -34.5 -87.5t-83.5 -43.5q-23 -3 -46 -3l-52 5q-49 8 -83 43t-34 85l50 -1q0 -33 23.5 -55.5t58.5 -27.5q18 -3 36 -3q16 0 32 2q34 5 58 26.5t24 52.5q0 486 -1 580z" />
<glyph unicode="K" horiz-adv-x="531" d="M180 346h128q175 0 175 -129v-217h-50v217q0 46 -37 66t-88 20h-206v-303h-49v700h49v-354h17l324 354h61v-10z" />
<glyph unicode="L" horiz-adv-x="410" d="M240 51h145v-51h-145q-81 0 -135.5 36.5t-54.5 113.5v550h51v-550q0 -51 42 -75t97 -24z" />
<glyph unicode="M" horiz-adv-x="660" d="M325 234l213 466h62v-700h-51v561l7 71h-3l-21 -67l-186 -397h-41l-186 397l-21 67h-3l7 -71v-561h-51v700h62z" />
<glyph unicode="N" horiz-adv-x="530" d="M474 700v-700h-53l-301 565l-25 67h-4l9 -71v-561h-50v700h54l301 -565l25 -66h3l-9 71v560h50z" />
<glyph unicode="O" horiz-adv-x="525" d="M419 107q3 6 3 26l1 441q0 34 -33 57t-80 28q-24 3 -48 3l-48 -3q-47 -5 -80 -28t-33 -57l1 -441q0 -20 3 -26q14 -41 85 -58q36 -9 72 -9l72 9q71 17 85 58zM51 128v446q0 51 43.5 86t105.5 43q31 4 62 4l62 -4q62 -8 105.5 -43t43.5 -86v-446q0 -52 -43.5 -87.5 t-105.5 -43.5q-31 -4 -62 -4l-62 4q-62 8 -105.5 43.5t-43.5 87.5z" />
<glyph unicode="P" horiz-adv-x="460" d="M100 320h138q55 0 96 22.5t41 62.5v161q0 43 -43.5 63.5t-92.5 21.5h-139v-331zM238 270h-138v-270h-49v700h188q70 0 127.5 -34.5t57.5 -99.5v-161q0 -64 -55 -99.5t-131 -35.5z" />
<glyph unicode="Q" horiz-adv-x="526" d="M382 67l-66 69l67 1l36 -35q5 12 5 32v439q0 34 -33 56.5t-81 28.5q-23 2 -47 2l-47 -2q-48 -6 -81 -29t-33 -56v-439q0 -13 3 -25q13 -37 69 -53q44 -13 89 -13q14 0 27 1q60 5 92 23zM51 130v443q0 37 23.5 66t60.5 43.5t82 21.5q23 3 45.5 3.5t45.5 -3.5q45 -7 82 -22 t60.5 -43.5t23.5 -65.5v-443q0 -36 -19 -65l61 -70h-68l-30 35q-37 -24 -99 -32q-29 -4 -58 -4q-32 0 -63 5q-60 9 -103.5 43.5t-43.5 87.5z" />
<glyph unicode="R" horiz-adv-x="469" d="M374 399v167q0 43 -44.5 66.5t-91.5 23.5h-139v-343h135q32 0 61 6.5t54 27t25 52.5zM234 268h-135v-268h-49v700h188q11 0 22.5 -1t36 -4.5t44 -12.5t40 -22.5t32 -38t11.5 -55.5v-167q0 -40 -27 -71.5t-68 -39.5q41 -9 68 -38.5t27 -70.5v-179h-50v179q0 31 -25.5 52.5 t-55 29t-59.5 7.5z" />
<glyph unicode="S" horiz-adv-x="468" d="M413 578l-50 1q0 47 -49 69q-36 15 -77 15q-17 0 -34 -3q-61 -8 -93 -38q-32 -31 -36 -85v-13q0 -45 25 -77q30 -36 131 -61q101 -26 156 -74t55 -140q0 -83 -65 -138q-45 -37 -120 -44q-18 -1 -35 -1q-54 0 -96 16q-45 16 -73.5 49.5t-27.5 78.5l49 -1q1 -30 23 -54 t52 -33q44 -12 81 -12q67 0 115 39q46 37 47 97q0 38 -14.5 68.5t-41.5 50t-55 32t-63 21.5q-112 28 -152 70q-41 45 -41 113v14q5 76 52 120q45 42 126 50q16 2 31 2q63 0 115 -28q65 -35 65 -104z" />
<glyph unicode="T" horiz-adv-x="481" d="M22 656v44h431v-44h-190l-2 -656h-51l2 656h-190z" />
<glyph unicode="U" horiz-adv-x="527" d="M251 44h15q84 0 119 22q39 23 39 65v569h50v-569q0 -67 -63 -106q-50 -31 -134 -31h-10h-10h-10q-84 0 -134 31q-63 39 -63 106v569h50v-569q0 -40 39 -63q37 -24 112 -24z" />
<glyph unicode="V" horiz-adv-x="519" d="M270 -8h-21l-161 142q-38 34 -38 91v476h51v-477q0 -21 3 -29.5t17 -21.5l139 -124l139 124q13 13 16 21.5t3 29.5v477h51v-476q0 -57 -38 -91z" />
<glyph unicode="W" horiz-adv-x="829" d="M255 -9h-21l-147 142q-37 37 -37 91v476h50v-477q0 -20 3 -28.5t17 -22.5l125 -124l124 124q14 14 17 22t3 29v1v476h51v-476v-1q0 -21 3 -29t16 -22l125 -124l125 124q13 14 16 22t3 29v477h51v-476q0 -54 -38 -91l-146 -142h-22q-9 8 -32 31l-35 33l-30 29l-33 35.5 t-29 33.5q-41 -50 -159 -162z" />
<glyph unicode="X" horiz-adv-x="506" d="M84 234l131 115l-131 116q-37 32 -37 91v144h50v-145q0 -21 3 -29t17 -22l139 -124l139 124q13 14 16 22t3 29v145h51v-144q0 -58 -38 -91l-130 -116l130 -115q38 -33 38 -91v-143h-51v144q0 21 -3 29.5t-16 21.5l-139 124l-139 -124q-14 -13 -17 -21.5t-3 -29.5v-144 h-50v143q0 59 37 91z" />
<glyph unicode="Y" horiz-adv-x="485" d="M116 454l128 -134l128 134q26 26 26 58v188h51v-187q0 -53 -38 -91l-142 -148v-273h-50v273l-142 148q-38 38 -38 91v187h51v-188q0 -32 26 -58z" />
<glyph unicode="Z" horiz-adv-x="464" d="M43 653v47h303q46 0 64.5 -18.5t18.5 -66.5v-44q-1 -55 -37 -102.5t-87 -82.5l-103 -72q-51 -36 -87.5 -83t-37.5 -101v-36q0 -43 36 -43h317v-50h-317q-43 0 -62.5 21.5t-19.5 71.5v37q0 57 36.5 110t88.5 93l102 78q52 37 88.5 78t36.5 81v44q0 21 -9 29.5t-29 8.5 h-302z" />
<glyph unicode="`" horiz-adv-x="184" d="M34 774v7h65l29 -87h-44z" />
<glyph unicode="a" horiz-adv-x="465" d="M344 294v64q0 25 -12 41q-24 34 -84 46q-17 3 -37 3t-42 -3q-64 -11 -92 -52l-43 27q28 46 98 65q38 10 76 10q32 0 63 -7q70 -15 102 -59q21 -30 21 -75v-263q0 -47 49 -47v-45q-7 -1 -13 -1q-57 0 -77 41q-53 -52 -146 -52q-33 0 -73 10q-65 18 -96 70q-21 36 -21 75 q0 17 4 34q13 56 63 89q60 40 153 40q49 0 107 -11zM344 122v126q-43 13 -97 13q-11 0 -23 -1q-68 -3 -108 -31q-35 -24 -44 -63q-4 -12 -4 -24q0 -25 14 -49q20 -35 66 -48q25 -7 59 -7q50 0 93.5 20.5t43.5 63.5z" />
<glyph unicode="b" horiz-adv-x="474" d="M50 704h51v-271q40 48 119 55h21q66 0 121 -34q63 -39 63 -109v-221q0 -47 -31.5 -79.5t-83.5 -45.5q-27 -8 -58 -8q-29 0 -61 7q-65 16 -94 57v-55h-47v704zM101 354v-208q0 -53 41.5 -79.5t95.5 -26.5q34 0 59 7q34 10 55.5 29.5t21.5 47.5v223q0 36 -28 59.5t-68 28.5 q-19 2 -38 2q-21 0 -42 -3q-41 -5 -69 -27t-28 -53z" />
<glyph unicode="c" horiz-adv-x="466" d="M372 129h50q0 -47 -31.5 -79t-82.5 -46v-1q-37 -9 -73 -9l-73 9q-50 14 -82 46.5t-32 81.5v229q0 48 32 80t82 46q38 10 73 10q33 0 73 -10q51 -14 82.5 -46t31.5 -80h-50q0 29 -21.5 48.5t-56.5 29.5q-29 8 -59 8t-60 -8q-77 -21 -77 -79v-228q0 -58 77 -80 q30 -8 59.5 -8t59.5 8h1q34 10 55.5 29.5t21.5 48.5z" />
<glyph unicode="d" d="M373 704h50v-704h-46v55q-29 -41 -95 -57q-32 -7 -61 -7q-31 0 -58 8q-51 14 -82.5 46t-31.5 79v221q0 70 63 109q55 34 121 34h21q79 -7 119 -55v271zM373 146v208q0 31 -28 53t-69 27q-21 3 -42 3q-19 0 -38 -2q-40 -5 -68 -28.5t-28 -59.5v-223h-1q0 -28 21.5 -47.5 t56.5 -29.5q25 -7 59 -7q54 0 95.5 26.5t41.5 79.5z" />
<glyph unicode="e" horiz-adv-x="464" d="M101 362v-131q2 0 54 -1h9q47 0 83 5q40 5 70 19q41 19 53 59q4 14 4 28q0 25 -14 49q-20 37 -63 49q-29 8 -59 8t-60 -8q-34 -10 -55.5 -29.5t-21.5 -47.5zM101 187v-51q0 -25 12 -42q26 -35 83 -45q20 -3 40 -3t39 3q63 8 93 51l43 -26q-37 -61 -129 -75q-25 -4 -48 -4 q-20 0 -39 3q-84 13 -123 66q-22 32 -22 76v222q0 47 31.5 79t83.5 46q36 10 72.5 10t72.5 -10q63 -19 92 -73q19 -35 19 -71q0 -21 -5 -42q-17 -59 -75 -90q-24 -13 -59.5 -19.5t-59.5 -7.5h-13q-22 0 -54 2q-43 1 -54 1z" />
<glyph unicode="f" horiz-adv-x="289" d="M152 0h-51v445h-86v46h86v73q0 78 51 111q45 29 112 29h16v-46q-30 -1 -49 -4t-39 -12t-30 -28.5t-10 -49.5v-73h118v-46h-118v-445z" />
<glyph unicode="g" horiz-adv-x="480" d="M307 146q67 23 67 74v143q0 28 -21.5 47.5t-55.5 29.5q-27 7 -60 7q-34 0 -59 -7q-77 -21 -77 -77v-143q0 -33 29 -54.5t73 -27.5q14 -3 33 -3q9 0 20 1q29 3 51 10zM364 465l35 37l38 -33l-35 -37q22 -30 22 -69v-143q0 -87 -101 -122q-36 -11 -63 -12q-11 -1 -23 -1 q-20 0 -41 3h-1q-11 1 -26 5q-32 0 -37 -24q-1 -3 -1 -6q0 -19 30 -24q22 -4 63 -4t71 -2t60.5 -11t47.5 -34.5t17 -68.5v-18q0 -85 -94 -111q-31 -10 -81 -10q-48 0 -83 9q-102 22 -107 108q-1 7 -1 14q0 21 5 34h50q-4 -15 -4 -30q0 -7 1 -15q4 -43 66 -63q36 -11 70 -11 q36 0 70 12q30 10 43.5 23.5t13.5 39.5v18q0 34 -23.5 51t-57.5 17.5t-72 1.5t-68 3q-54 9 -68 50q-4 11 -4 22q0 26 24 45q5 5 11 8q-61 36 -61 103v143q0 47 31.5 79t82.5 46q34 10 73 10q40 0 73 -10q29 -7 54 -23z" />
<glyph unicode="h" horiz-adv-x="473" d="M102 0h-51v704h51v-252q48 45 128 48h11q72 0 120 -32q63 -36 64 -103v-3v-362h-50v362v2q-1 38 -40 61q-36 22 -97 24h-3q-86 -2 -120 -46q-13 -18 -13 -45v-358z" />
<glyph unicode="i" horiz-adv-x="176" d="M60 613v89h57v-89h-57zM63 0v491h51v-491h-51z" />
<glyph unicode="j" horiz-adv-x="168" d="M64 493h50v-563q0 -76 -47 -110q-44 -33 -113 -33h-8v51h9q109 0 109 91v564zM62 617v89h54v-89h-54z" />
<glyph unicode="k" horiz-adv-x="465" d="M100 0h-50v704h50v-456l263 243h67v-5l-227 -208q27 6 53 6q24 0 48 -6q50 -10 84.5 -42.5t35.5 -78.5v-4v-153h-50v153v2q-1 47 -55 70q-38 16 -80 16q-18 0 -37 -3q-63 -10 -89 -44q-13 -18 -13 -45v-149z" />
<glyph unicode="l" horiz-adv-x="199" d="M174 41v-45q-9 -1 -17 -1q-51 0 -77 21q-29 25 -29 90v594h50v-595q0 -38 16 -51t57 -13z" />
<glyph unicode="m" horiz-adv-x="754" d="M398 362v-362h-50v362q-3 44 -38 68q-34 22 -78 22h-4q-51 -2 -89.5 -30.5t-38.5 -72.5v-349h-51v491h51v-47q48 53 136 53q48 0 86.5 -18.5t53.5 -52.5q19 33 60 51t87 18q71 -1 122.5 -37t51.5 -102v-356h-51v357q0 45 -36.5 68.5t-87.5 23.5q-49 0 -85 -22.5 t-39 -64.5z" />
<glyph unicode="n" horiz-adv-x="474" d="M424 0h-51v358q0 42 -40.5 66.5t-95.5 24.5q-56 0 -96.5 -25.5t-40.5 -73.5v-350h-51v492h51v-46q48 52 136 52h4q74 0 128 -36q56 -36 56 -105v-357z" />
<glyph unicode="o" horiz-adv-x="469" d="M304 55q67 23 67 75v232q0 28 -21.5 47.5t-55.5 29.5q-30 8 -60 8t-60 -8q-77 -21 -77 -77v-232q0 -32 27.5 -54t69.5 -29q21 -4 41 -4q36 0 69 12zM421 362v-232q0 -87 -101 -122q-40 -13 -84 -13q-24 0 -50 4q-61 11 -100 44.5t-39 86.5v232q0 47 31.5 79t82.5 46 q34 10 73 10q40 0 73 -10q51 -14 82.5 -46t31.5 -79z" />
<glyph unicode="p" d="M99 -215h-50v704h46v-55q29 41 94 57q32 8 61 8q31 0 59 -9q51 -14 82.5 -46t31.5 -79v-227q0 -70 -63 -110q-55 -33 -121 -33q-10 0 -21 1q-79 6 -119 54v-265zM99 343v-213q0 -31 28 -53.5t69 -28.5q21 -2 42 -2q19 0 38 2q40 5 68 28.5t28 59.5v229h1q0 28 -21.5 47.5 t-56.5 29.5q-25 7 -59 7q-54 0 -95.5 -26.5t-41.5 -79.5z" />
<glyph unicode="q" horiz-adv-x="470" d="M422 -215h-51v265q-40 -48 -118 -54q-11 -1 -22 -1q-65 0 -119 33q-64 40 -64 110v227q0 47 31.5 79t82.5 46q28 9 59 9q29 0 61 -8q65 -16 93 -57v55h47v-704zM371 130v213q0 53 -41 79.5t-95 26.5q-33 0 -60 -7q-34 -10 -55.5 -29.5t-21.5 -47.5v-229q0 -36 28 -59.5 t68 -28.5q19 -2 38 -2q21 0 42 2q41 6 69 28.5t28 53.5z" />
<glyph unicode="r" horiz-adv-x="319" d="M101 0h-51v223v128v140h49v-54q30 43 93 57q30 6 56 6q31 0 59 -9l-8 -47q-19 7 -42 7q-8 0 -17 -1q-34 -3 -65 -13.5t-52.5 -33.5t-21.5 -51v-352z" />
<glyph unicode="s" horiz-adv-x="445" d="M36 94l43 28q17 -40 57 -60q36 -18 72 -18h7q39 2 73 9q35 10 56.5 30t21.5 49q0 20 -8.5 35t-19 23t-32.5 14.5t-36 8.5l-43 6q-37 5 -55.5 8t-47.5 12.5t-43 22.5t-25 37.5t-11 57.5q1 49 32.5 82.5t82.5 48.5q43 9 90 10h4q45 0 88 -20q45 -22 63 -62l-40 -26 q-26 44 -87 55q-23 4 -45 4q-33 0 -60 -10q-78 -23 -78 -82q0 -20 8.5 -35t19 -23t32.5 -14.5t37 -8.5l42 -6q37 -5 55.5 -8t47 -12.5t43 -23t25.5 -37.5t11 -57q-1 -49 -32.5 -81.5t-82.5 -46.5q-34 -10 -74 -10t-78.5 9t-69.5 32.5t-43 58.5z" />
<glyph unicode="t" horiz-adv-x="289" d="M98 702h50v-211h119v-45q-79 0 -119 -1v-307q0 -30 10 -49.5t30 -28.5t39 -12t49 -4v-46h-16q-66 0 -112 29q-50 33 -50 110v309h-86v45h86v211z" />
<glyph unicode="u" horiz-adv-x="480" d="M49 490h50v-355q0 -43 41 -67.5t96 -24.5q56 0 96.5 26t40.5 73v348h50v-490h-50v47q-46 -51 -136 -53q-77 0 -132.5 36t-55.5 105v355z" />
<glyph unicode="v" horiz-adv-x="464" d="M243 -5h-20l-135 128q-24 23 -31.5 40.5t-7.5 44.5v282h51v-282q0 -27 17 -43l116 -110l116 110q18 17 18 43v282h50v-282q0 -27 -7.5 -44.5t-31.5 -40.5z" />
<glyph unicode="w" horiz-adv-x="737" d="M231 -5h-19l-125 128q-24 24 -31.5 41.5t-7.5 43.5v282h51v-282q0 -25 17 -43l105 -110l105 110q18 18 18 43v282h50v-282q0 -25 18 -43l105 -110l105 110q17 18 17 43v282h51v-282q0 -26 -7.5 -43.5t-31.5 -41.5l-125 -128h-19l-138 146z" />
<glyph unicode="x" horiz-adv-x="460" d="M83 147l103 98l-103 98q-24 23 -31.5 40.5t-7.5 44.5v62h50v-62q0 -26 18 -43l115 -110h1l115 110q18 16 18 43v62h51v-62q0 -27 -7.5 -44.5t-31.5 -40.5l-104 -98l104 -98q24 -23 31.5 -40.5t7.5 -44.5v-62h-51v62q0 27 -18 43l-115 110h-1l-115 -110q-18 -17 -18 -43 v-62h-50v62q0 27 7.5 44.5t31.5 40.5z" />
<glyph unicode="y" horiz-adv-x="471" d="M422 -68v-9q0 -49 -32 -81.5t-81 -45.5q-34 -10 -73 -10q-54 0 -103 19.5t-71 61.5l43 23q37 -54 131 -54q34 0 59 7q32 9 54 29.5t23 50.5v9v8v98q-49 -45 -128 -48h-11q-73 0 -121 32q-64 38 -64 107v361h51v-360q0 -42 39 -65q38 -22 97 -24l3 1q87 0 121 46 q13 17 13 45v357h50v-558z" />
<glyph unicode="z" horiz-adv-x="431" d="M45 440v50h271q64 -1 85 -51q6 -15 6 -29q0 -33 -34 -62l-273 -241q-15 -14 -15 -28q0 -5 3 -11q8 -18 38 -18h280v-50h-282q-64 1 -85 50q-6 16 -6 30q0 33 33 62l273 241q16 14 16 28q0 5 -3 11q-9 18 -38 18h-269z" />
<glyph unicode="&#xa1;" horiz-adv-x="184" d="M62 433v72h57v-72h-57zM63 -197v550h53v-550h-53z" />
<glyph unicode="&#xa2;" horiz-adv-x="466" d="M214 495v66h47v-67q20 -1 47 -8q51 -14 82.5 -46t31.5 -80h-50q0 29 -21.5 48.5t-56.5 29.5q-29 8 -59 8t-60 -8q-77 -21 -77 -79v-228q0 -58 77 -80q30 -8 59.5 -8t59.5 8h1q34 10 55.5 29.5t21.5 48.5h50q0 -47 -31.5 -79t-82.5 -46v-1q-17 -4 -47 -8v-68h-47v68 q-24 1 -52 8q-50 14 -82 46.5t-32 81.5v229q0 48 32 80t82 46q31 8 52 9z" />
<glyph unicode="&#xa8;" horiz-adv-x="356" d="M64 642v63h59v-63h-59zM212 642v63h59v-63h-59z" />
<glyph unicode="&#xaa;" horiz-adv-x="465" d="M344 294v64q0 25 -12 41q-24 34 -84 46q-17 3 -37 3t-42 -3q-64 -11 -92 -52l-43 27q28 46 98 65q38 10 76 10q32 0 63 -7q70 -15 102 -59q21 -30 21 -75v-263q0 -47 49 -47v-45q-7 -1 -13 -1q-57 0 -77 41q-53 -52 -146 -52q-33 0 -73 10q-65 18 -96 70q-21 36 -21 75 q0 17 4 34q13 56 63 89q60 40 153 40q49 0 107 -11zM344 122v126q-43 13 -97 13q-11 0 -23 -1q-68 -3 -108 -31q-35 -24 -44 -63q-4 -12 -4 -24q0 -25 14 -49q20 -35 66 -48q25 -7 59 -7q50 0 93.5 20.5t43.5 63.5z" />
<glyph unicode="&#xad;" horiz-adv-x="317" d="M43 299h215v-50h-215v50z" />
<glyph unicode="&#xb2;" horiz-adv-x="491" d="M90 128v-46q0 -22 8 -28t31 -6h325v-48h-326q-48 0 -68 17t-20 65v47q0 47 19.5 85t55.5 65t70 45.5t83 41.5t73 37q69 40 67 123q0 58 -47 97q-49 40 -115 40q-38 0 -81 -13q-30 -8 -51.5 -32t-22.5 -55h-50q0 45 28 78t73 49h1q43 16 98 16q15 0 32 -1q75 -6 120 -43 q64 -55 65 -135q0 -112 -92 -164q-25 -15 -70 -35t-75.5 -35.5t-63 -38t-49.5 -54.5t-18 -72z" />
<glyph unicode="&#xb3;" d="M428 566v-106q0 -71 -73 -110q73 -37 73 -109v-106q0 -64 -55.5 -99t-125.5 -36h-208v51h203v-1l4 1q47 0 89 21.5t42 62.5v106q0 41 -42.5 64t-88.5 23h-4h-203v44h203h4q46 0 88.5 23.5t42.5 64.5v106q0 41 -42 62.5t-89 21.5h-4h-203v51l208 -1q69 0 125 -35t56 -99z " />
<glyph unicode="&#xb4;" horiz-adv-x="201" d="M155 781v-7l-50 -80h-44l29 87h65z" />
<glyph unicode="&#xb8;" horiz-adv-x="273" d="M80 -89v6l34 76h38l-23 -53h8q40 0 62 -18q23 -18 23 -43q0 -36 -36 -56q-28 -15 -59 -15q-8 0 -17 1q-41 5 -60 32l28 24q15 -17 44 -17q6 0 12 1q38 4 38 30q0 10 -6 17t-19.5 10t-21 4t-26.5 1h-19z" />
<glyph unicode="&#xb9;" horiz-adv-x="243" d="M27 700h157v-700h-51v648h-106v52z" />
<glyph unicode="&#xba;" horiz-adv-x="469" d="M304 55q67 23 67 75v232q0 28 -21.5 47.5t-55.5 29.5q-30 8 -60 8t-60 -8q-77 -21 -77 -77v-232q0 -32 27.5 -54t69.5 -29q21 -4 41 -4q36 0 69 12zM421 362v-232q0 -87 -101 -122q-40 -13 -84 -13q-24 0 -50 4q-61 11 -100 44.5t-39 86.5v232q0 47 31.5 79t82.5 46 q34 10 73 10q40 0 73 -10q51 -14 82.5 -46t31.5 -79z" />
<glyph unicode="&#xbf;" horiz-adv-x="483" d="M233 332v65h50v-66v-47q0 -19 -3.5 -37.5t-4 -28t-9.5 -22.5l-10 -17q-3 -4 -18.5 -15.5t-21 -15t-29.5 -17t-35 -20.5q-69 -41 -67 -127q0 -58 47 -97t114 -39q38 0 82 12q30 9 51.5 33t22.5 55h50q0 -45 -28.5 -78.5t-73.5 -48.5q-43 -16 -98 -16q-15 0 -32 1 q-75 6 -120 43q-65 53 -65 140q0 109 92 161l36 20q51 28 60 45.5t10 91.5v25zM286 513v-59h-55v59h55z" />
<glyph unicode="&#xc0;" horiz-adv-x="534" d="M411 675q62 -37 62 -103h1v-572h-50v274h-324v-274h-50v572q0 66 62 103q55 33 150 33t149 -33zM138 633q-38 -23 -38 -61v-248h324v248q0 37 -39 61q-43 26 -124 26t-123 -26zM190 819v6h65l29 -78h-44z" />
<glyph unicode="&#xc1;" horiz-adv-x="534" d="M411 675q-54 33 -149 33t-150 -33q-62 -37 -62 -103v-572h50v274h324v-274h50v572h-1q0 66 -62 103zM138 633q42 26 123 26t124 -26q39 -24 39 -61v-248h-324v248q0 38 38 61zM332 822v-5l-53 -67h-47l31 72h69z" />
<glyph unicode="&#xc2;" horiz-adv-x="534" d="M266 781l-42 -35h-51l61 69h64l59 -69h-49zM411 675q-54 33 -149 33t-150 -33q-62 -37 -62 -103v-572h50v274h324v-274h50v572h-1q0 66 -62 103zM138 633q42 26 123 26t124 -26q39 -24 39 -61v-248h-324v248q0 38 38 61z" />
<glyph unicode="&#xc3;" horiz-adv-x="534" d="M199 749l-31 10q4 20 21.5 37t37.5 18h5q19 0 41 -14q24 -16 31 -16h1q18 1 23 22l31 -13q-4 -20 -18 -33t-35 -14h-2q-18 0 -40 15q-23 16 -33 16q-11 -1 -20.5 -9t-11.5 -19zM411 675q62 -37 62 -103h1v-572h-50v274h-324v-274h-50v572q0 66 62 103q55 33 150 33 t149 -33zM138 633q-38 -23 -38 -61v-248h324v248q0 37 -39 61q-43 26 -124 26t-123 -26z" />
<glyph unicode="&#xc4;" horiz-adv-x="534" d="M411 675q62 -37 62 -103h1v-572h-50v274h-324v-274h-50v572q0 66 62 103q55 33 150 33t149 -33zM138 633q-38 -23 -38 -61v-248h324v248q0 37 -39 61q-43 26 -124 26t-123 -26zM161 748v55h60v-55h-60zM312 748v55h61v-55h-61z" />
<glyph unicode="&#xc5;" horiz-adv-x="534" d="M411 675q-54 33 -149 33t-150 -33q-62 -37 -62 -103v-572h50v274h324v-274h50v572h-1q0 66 -62 103zM138 633q42 26 123 26t124 -26q39 -24 39 -61v-248h-324v248q0 38 38 61zM203 785q0 23 17 39t42 16t42.5 -16t17.5 -39t-17.5 -39t-42.5 -16t-42 16t-17 39zM238 784 q0 -22 25 -22q10 0 17 6t7 16t-7 16.5t-17 6.5q-11 0 -18 -6.5t-7 -16.5z" />
<glyph unicode="&#xc6;" horiz-adv-x="830" d="M457 651v-312h322v-51h-322q0 -163 4 -174q11 -32 51 -47.5t82 -15.5h185v-51h-185v1h-4q-70 0 -126 33q-57 35 -57 101v153h-307v-288h-50v565q0 66 62 103q56 33 151 33h516v-50h-322zM138 626q-38 -23 -38 -61v-227h307v314h-146q-80 0 -123 -26z" />
<glyph unicode="&#xc7;" horiz-adv-x="516" d="M223 -64v6l24 54q-49 2 -80 10q-52 14 -84 46t-33 79v439q1 52 38.5 85.5t96.5 44.5q32 6 73 6h22q54 -2 92 -14q102 -35 102 -122h-50q0 52 -67 75q-41 13 -89 13q-35 0 -74 -7q-41 -8 -67.5 -29t-26.5 -52v-439q0 -28 22 -47.5t58 -29.5q35 -9 84.5 -9t84.5 10 q75 21 75 76l50 1q0 -47 -30.5 -79t-80.5 -46q-35 -10 -78 -11l-13 -31h8q40 0 62 -17q23 -19 23 -44q0 -36 -36 -56q-28 -15 -59 -15q-8 0 -17 1q-41 5 -60 32l28 24q15 -17 44 -17q6 0 12 1q38 4 38 30q0 10 -6 17t-19.5 10t-21 4t-26.5 1h-19z" />
<glyph unicode="&#xc8;" d="M100 651v-275h322v-51h-322q0 -200 4 -211q11 -32 51 -47.5t82 -15.5h185v-51h-185v1h-4q-70 0 -125 33q-58 35 -58 101v566h372v-50h-322zM174 809v5h66l30 -69h-45z" />
<glyph unicode="&#xc9;" d="M306 814v-5l-51 -64h-45l30 69h66zM100 376v275h322v50h-372v-566q0 -66 58 -101q55 -33 125 -33h4v-1h185v51h-185q-42 0 -82 15.5t-51 47.5q-4 11 -4 211h322v51h-322z" />
<glyph unicode="&#xca;" d="M100 376v275h322v50h-372v-566q0 -66 58 -101q55 -33 125 -33h4v-1h185v51h-185q-42 0 -82 15.5t-51 47.5q-4 11 -4 211h322v51h-322zM252 783l-42 -38h-51l61 67h64l59 -67h-49z" />
<glyph unicode="&#xcb;" d="M100 651v-275h322v-51h-322q0 -200 4 -211q11 -32 51 -47.5t82 -15.5h185v-51h-185v1h-4q-70 0 -125 33q-58 35 -58 101v566h372v-50h-322zM149 750v51h60v-51h-60zM300 750v51h60v-51h-60z" />
<glyph unicode="&#xcc;" horiz-adv-x="179" d="M63 701h50v-701h-50v701zM19 809v5h66l30 -69h-45z" />
<glyph unicode="&#xcd;" horiz-adv-x="179" d="M162 816v-5l-51 -64h-45l30 69h66zM113 701h-50v-701h50v701z" />
<glyph unicode="&#xce;" horiz-adv-x="179" d="M113 701h-50v-701h50v701zM90 785l-41 -40h-49l59 71h63l58 -71h-48z" />
<glyph unicode="&#xcf;" horiz-adv-x="179" d="M63 701h50v-701h-50v701zM-9 746v58h59v-58h-59zM139 746v58h59v-58h-59z" />
<glyph unicode="&#xd1;" horiz-adv-x="530" d="M202 746l-31 10q4 20 21.5 37t37.5 18h5q19 0 41 -14q24 -16 31 -16h1q18 1 23 22l31 -13q-4 -20 -18 -33t-35 -14h-2q-18 0 -40 15q-23 16 -33 16q-11 -1 -20.5 -9t-11.5 -19zM474 700v-700h-53l-301 565l-25 67h-4l9 -71v-561h-50v700h54l301 -565l25 -66h3l-9 71v560 h50z" />
<glyph unicode="&#xd2;" horiz-adv-x="525" d="M419 107q3 6 3 26l1 441q0 34 -33 57t-80 28q-24 3 -48 3l-48 -3q-47 -5 -80 -28t-33 -57l1 -441q0 -20 3 -26q14 -41 85 -58q36 -9 72 -9l72 9q71 17 85 58zM51 128v446q0 51 43.5 86t105.5 43q31 4 62 4l62 -4q62 -8 105.5 -43t43.5 -86v-446q0 -52 -43.5 -87.5 t-105.5 -43.5q-31 -4 -62 -4l-62 4q-62 8 -105.5 43.5t-43.5 87.5zM201 811v5h66l30 -69h-45z" />
<glyph unicode="&#xd3;" horiz-adv-x="525" d="M328 814v-5l-51 -64h-45l30 69h66zM419 107q-14 -41 -85 -58q-36 -9 -72 -9l-72 9q-71 17 -85 58q-3 6 -3 26l-1 441q0 34 33 57t80 28q24 3 48 3l48 -3q47 -5 80 -28t33 -57l-1 -441q0 -20 -3 -26zM51 574v-446q0 -52 43.5 -87.5t105.5 -43.5q31 -4 62 -4l62 4 q62 8 105.5 43.5t43.5 87.5v446q0 51 -43.5 86t-105.5 43q-31 4 -62 4l-62 -4q-62 -8 -105.5 -43t-43.5 -86z" />
<glyph unicode="&#xd4;" horiz-adv-x="525" d="M419 107q-14 -41 -85 -58q-36 -9 -72 -9l-72 9q-71 17 -85 58q-3 6 -3 26l-1 441q0 34 33 57t80 28q24 3 48 3l48 -3q47 -5 80 -28t33 -57l-1 -441q0 -20 -3 -26zM51 574v-446q0 -52 43.5 -87.5t105.5 -43.5q31 -4 62 -4l62 4q62 8 105.5 43.5t43.5 87.5v446 q0 51 -43.5 86t-105.5 43q-31 4 -62 4l-62 -4q-62 -8 -105.5 -43t-43.5 -86zM263 783l-42 -38h-51l61 67h64l59 -67h-49z" />
<glyph unicode="&#xd5;" horiz-adv-x="525" d="M197 747l-31 10q4 20 21.5 37t37.5 18h5q19 0 41 -14q24 -16 31 -16h1q18 1 23 22l31 -13q-4 -20 -18 -33t-35 -14h-2q-18 0 -40 15q-23 16 -33 16q-11 -1 -20.5 -9t-11.5 -19zM419 107q3 6 3 26l1 441q0 34 -33 57t-80 28q-24 3 -48 3l-48 -3q-47 -5 -80 -28t-33 -57 l1 -441q0 -20 3 -26q14 -41 85 -58q36 -9 72 -9l72 9q71 17 85 58zM51 128v446q0 51 43.5 86t105.5 43q31 4 62 4l62 -4q62 -8 105.5 -43t43.5 -86v-446q0 -52 -43.5 -87.5t-105.5 -43.5q-31 -4 -62 -4l-62 4q-62 8 -105.5 43.5t-43.5 87.5z" />
<glyph unicode="&#xd6;" horiz-adv-x="525" d="M419 107q3 6 3 26l1 441q0 34 -33 57t-80 28q-24 3 -48 3l-48 -3q-47 -5 -80 -28t-33 -57l1 -441q0 -20 3 -26q14 -41 85 -58q36 -9 72 -9l72 9q71 17 85 58zM51 128v446q0 51 43.5 86t105.5 43q31 4 62 4l62 -4q62 -8 105.5 -43t43.5 -86v-446q0 -52 -43.5 -87.5 t-105.5 -43.5q-31 -4 -62 -4l-62 4q-62 8 -105.5 43.5t-43.5 87.5zM161 748v53h58v-53h-58zM308 748v53h59v-53h-59z" />
<glyph unicode="&#xd8;" horiz-adv-x="525" d="M51 128v446q0 45 34.5 77t84.5 45q43 11 93 11h15q58 -2 104 -21l24 53h52l-34 -76q49 -36 49 -89v-446q0 -46 -35.5 -79t-87.5 -46q-41 -11 -88 -11q-11 0 -22 1q-58 3 -104 23l-26 -58h-51l36 82q-44 36 -44 88zM419 107q3 6 3 26l1 441q0 25 -19 44l-248 -558 q42 -20 97 -20q27 0 57 5q92 14 109 62zM101 574l1 -441q0 -20 3 -26q3 -10 11 -20l248 557q-51 17 -110 18h-4q-56 0 -102 -24q-47 -24 -47 -64z" />
<glyph unicode="&#xd9;" horiz-adv-x="527" d="M251 44h15q84 0 119 22q39 23 39 65v569h50v-569q0 -67 -63 -106q-50 -31 -134 -31h-10h-10h-10q-84 0 -134 31q-63 39 -63 106v569h50v-569q0 -40 39 -63q37 -24 112 -24zM196 809v5h66l30 -69h-45z" />
<glyph unicode="&#xda;" horiz-adv-x="527" d="M318 814v-5l-51 -64h-45l30 69h66zM251 44q-75 0 -112 24q-39 23 -39 63v569h-50v-569q0 -67 63 -106q50 -31 134 -31h10h10h10q84 0 134 31q63 39 63 106v569h-50v-569q0 -42 -39 -65q-35 -22 -119 -22h-15z" />
<glyph unicode="&#xdb;" horiz-adv-x="527" d="M251 44q-75 0 -112 24q-39 23 -39 63v569h-50v-569q0 -67 63 -106q50 -31 134 -31h10h10h10q84 0 134 31q63 39 63 106v569h-50v-569q0 -42 -39 -65q-35 -22 -119 -22h-15zM268 784l-41 -38h-49l59 67h63l57 -67h-48z" />
<glyph unicode="&#xdc;" horiz-adv-x="527" d="M251 44h15q84 0 119 22q39 23 39 65v569h50v-569q0 -67 -63 -106q-50 -31 -134 -31h-10h-10h-10q-84 0 -134 31q-63 39 -63 106v569h50v-569q0 -40 39 -63q37 -24 112 -24zM164 746v57h60v-57h-60zM313 746v57h59v-57h-59z" />
<glyph unicode="&#xdd;" horiz-adv-x="485" d="M244 320l-128 134q-26 26 -26 58v188h-51v-187q0 -53 38 -91l142 -148v-273h50v273l142 148q38 38 38 91v187h-51v-188q0 -32 -26 -58zM311 826v-6l-52 -70h-47l31 76h68z" />
<glyph unicode="&#xe0;" horiz-adv-x="465" d="M344 294v64q0 25 -12 41q-24 34 -84 46q-17 3 -37 3t-42 -3q-64 -11 -92 -52l-43 27q28 46 98 65q38 10 76 10q32 0 63 -7q70 -15 102 -59q21 -30 21 -75v-263q0 -47 49 -47v-45q-7 -1 -13 -1q-57 0 -77 41q-53 -52 -146 -52q-33 0 -73 10q-65 18 -96 70q-21 36 -21 75 q0 17 4 34q13 56 63 89q60 40 153 40q49 0 107 -11zM344 122v126q-43 13 -97 13q-11 0 -23 -1q-68 -3 -108 -31q-35 -24 -44 -63q-4 -12 -4 -24q0 -25 14 -49q20 -35 66 -48q25 -7 59 -7q50 0 93.5 20.5t43.5 63.5zM153 663v7h65l29 -87h-44z" />
<glyph unicode="&#xe1;" horiz-adv-x="465" d="M282 671v-7l-50 -80h-44l29 87h65zM344 358v-64q-58 11 -107 11q-93 0 -153 -40q-50 -33 -63 -89q-4 -17 -4 -34q0 -39 21 -75q31 -52 96 -70q40 -10 73 -10q93 0 146 52q20 -41 77 -41q6 0 13 1v45q-49 0 -49 47v263q0 45 -21 75q-32 44 -102 59q-31 7 -63 7 q-38 0 -76 -10q-70 -19 -98 -65l43 -27q28 41 92 52q23 3 42.5 3t36.5 -3q60 -12 84 -46q12 -16 12 -41zM344 122q0 -43 -43.5 -63.5t-93.5 -20.5q-34 0 -59 7q-46 13 -66 48q-14 24 -14 49q0 12 4 24q9 39 44 63q40 28 108 31q12 1 23 1q54 0 97 -13v-126z" />
<glyph unicode="&#xe2;" horiz-adv-x="465" d="M221 628l-42 -47h-50l60 83h64l59 -83h-49zM344 358v-64q-58 11 -107 11q-93 0 -153 -40q-50 -33 -63 -89q-4 -17 -4 -34q0 -39 21 -75q31 -52 96 -70q40 -10 73 -10q93 0 146 52q20 -41 77 -41q6 0 13 1v45q-49 0 -49 47v263q0 45 -21 75q-32 44 -102 59q-31 7 -63 7 q-38 0 -76 -10q-70 -19 -98 -65l43 -27q28 41 92 52q23 3 42.5 3t36.5 -3q60 -12 84 -46q12 -16 12 -41zM344 122q0 -43 -43.5 -63.5t-93.5 -20.5q-34 0 -59 7q-46 13 -66 48q-14 24 -14 49q0 12 4 24q9 39 44 63q40 28 108 31q12 1 23 1q54 0 97 -13v-126z" />
<glyph unicode="&#xe3;" horiz-adv-x="465" d="M150 583l-31 10q4 20 21.5 37t37.5 18h5q19 0 41 -14q24 -16 31 -16h1q18 1 23 22l31 -13q-4 -20 -18 -33t-35 -14h-2q-18 0 -40 15q-23 16 -33 16q-11 -1 -20.5 -9t-11.5 -19zM344 294v64q0 25 -12 41q-24 34 -84 46q-17 3 -37 3t-42 -3q-64 -11 -92 -52l-43 27 q28 46 98 65q38 10 76 10q32 0 63 -7q70 -15 102 -59q21 -30 21 -75v-263q0 -47 49 -47v-45q-7 -1 -13 -1q-57 0 -77 41q-53 -52 -146 -52q-33 0 -73 10q-65 18 -96 70q-21 36 -21 75q0 17 4 34q13 56 63 89q60 40 153 40q49 0 107 -11zM344 122v126q-43 13 -97 13 q-11 0 -23 -1q-68 -3 -108 -31q-35 -24 -44 -63q-4 -12 -4 -24q0 -25 14 -49q20 -35 66 -48q25 -7 59 -7q50 0 93.5 20.5t43.5 63.5z" />
<glyph unicode="&#xe4;" horiz-adv-x="465" d="M344 294v64q0 25 -12 41q-24 34 -84 46q-17 3 -37 3t-42 -3q-64 -11 -92 -52l-43 27q28 46 98 65q38 10 76 10q32 0 63 -7q70 -15 102 -59q21 -30 21 -75v-263q0 -47 49 -47v-45q-7 -1 -13 -1q-57 0 -77 41q-53 -52 -146 -52q-33 0 -73 10q-65 18 -96 70q-21 36 -21 75 q0 17 4 34q13 56 63 89q60 40 153 40q49 0 107 -11zM344 122v126q-43 13 -97 13q-11 0 -23 -1q-68 -3 -108 -31q-35 -24 -44 -63q-4 -12 -4 -24q0 -25 14 -49q20 -35 66 -48q25 -7 59 -7q50 0 93.5 20.5t43.5 63.5zM123 586v53h57v-53h-57zM265 586v53h56v-53h-56z" />
<glyph unicode="&#xe5;" horiz-adv-x="465" d="M344 358v-64q-58 11 -107 11q-93 0 -153 -40q-50 -33 -63 -89q-4 -17 -4 -34q0 -39 21 -75q31 -52 96 -70q40 -10 73 -10q93 0 146 52q20 -41 77 -41q6 0 13 1v45q-49 0 -49 47v263q0 45 -21 75q-32 44 -102 59q-31 7 -63 7q-38 0 -76 -10q-70 -19 -98 -65l43 -27 q28 41 92 52q23 3 42.5 3t36.5 -3q60 -12 84 -46q12 -16 12 -41zM344 122q0 -43 -43.5 -63.5t-93.5 -20.5q-34 0 -59 7q-46 13 -66 48q-14 24 -14 49q0 12 4 24q9 39 44 63q40 28 108 31q12 1 23 1q54 0 97 -13v-126zM159 628q0 23 15.5 38.5t37.5 15.5t38 -16t16 -38 t-15.5 -37.5t-38.5 -15.5q-22 0 -37.5 15.5t-15.5 37.5zM191 627q0 -9 6 -15t16 -6q9 0 15.5 6t6.5 15q0 10 -6.5 16.5t-15.5 6.5q-10 0 -16 -6.5t-6 -16.5z" />
<glyph unicode="&#xe6;" horiz-adv-x="751" d="M394 187v-51q0 -23 13 -42q26 -35 83 -45q20 -3 40 -3t39 3q63 8 93 51l43 -26q-37 -61 -129 -75q-25 -4 -48 -4q-20 0 -39 3q-74 11 -116 56q-30 -33 -77.5 -50t-88.5 -17q-33 0 -73 10q-65 18 -96 70q-21 36 -21 75q0 17 4 34q13 56 63 89q60 40 153 40q49 0 107 -11 v68q-2 23 -12 37q-24 34 -84 46q-17 3 -37 3t-42 -3q-64 -11 -92 -52l-43 27q28 46 96 66q38 11 76 11q31 0 63 -7q70 -17 100 -68q31 49 90 65q37 10 73 10t72 -10q63 -19 92 -73q19 -35 19 -71q0 -21 -5 -42q-17 -59 -75 -90q-24 -13 -59.5 -19.5t-59.5 -7.5h-14 q-22 0 -54 2q-43 1 -54 1zM344 136v112q-43 13 -97 13q-11 0 -23 -1q-68 -3 -108 -31q-35 -24 -44 -63q-4 -12 -4 -24q0 -25 14 -49q20 -35 66 -48q25 -7 59 -7q33 0 77 15.5t66 42.5q-6 18 -6 40zM394 364v-2v-131q2 0 54 -1h10q47 0 83 5q40 5 70 19q41 19 53 59 q4 14 4 28q0 25 -14 49q-20 37 -63 49q-30 8 -59.5 8t-59.5 -8q-34 -10 -55.5 -29t-22.5 -46z" />
<glyph unicode="&#xe7;" horiz-adv-x="466" d="M181 -59v5l24 50q-15 1 -43 7q-50 14 -82 46.5t-32 81.5v229q0 48 32 80t82 46q38 10 73 10q33 0 73 -10q51 -14 82.5 -46t31.5 -80h-50q0 29 -21.5 48.5t-56.5 29.5q-29 8 -59 8t-60 -8q-77 -21 -77 -79v-228q0 -58 77 -80q30 -8 59.5 -8t59.5 8h1q34 10 55.5 29.5 t21.5 48.5h50q0 -47 -31.5 -79t-82.5 -46v-1q-33 -8 -67 -9l-12 -27h5q40 0 62 -17q22 -16 22 -37q0 -32 -34 -50q-27 -13 -58 -13h-16q-40 5 -58 29l27 21q14 -15 42 -15q6 0 12 1q37 3 37 26q0 7 -3.5 12t-10 8t-13 4.5t-16.5 2.5t-16.5 1.5t-16.5 0.5h-13z" />
<glyph unicode="&#xe8;" horiz-adv-x="457" d="M101 362v-131q2 0 54 -1h9q47 0 83 5q40 5 70 19q41 19 53 59q4 14 4 28q0 25 -14 49q-20 37 -63 49q-29 8 -59 8t-60 -8q-34 -10 -55.5 -29.5t-21.5 -47.5zM101 187v-51q0 -25 12 -42q26 -35 83 -45q20 -3 40 -3t39 3q63 8 93 51l43 -26q-37 -61 -129 -75q-25 -4 -48 -4 q-20 0 -39 3q-84 13 -123 66q-22 32 -22 76v222q0 47 31.5 79t83.5 46q36 10 72.5 10t72.5 -10q63 -19 92 -73q19 -35 19 -71q0 -21 -5 -42q-17 -59 -75 -90q-24 -13 -59.5 -19.5t-59.5 -7.5h-13q-22 0 -54 2q-43 1 -54 1zM169 663v7h65l29 -87h-44z" />
<glyph unicode="&#xe9;" horiz-adv-x="457" d="M295 666v-7l-50 -80h-44l29 87h65zM101 362q0 28 21.5 47.5t55.5 29.5q30 8 60 8t59 -8q43 -12 63 -49q14 -24 14 -49q0 -14 -4 -28q-12 -40 -53 -59q-30 -14 -70 -19q-36 -5 -83 -5h-9q-52 1 -54 1v131zM101 136v51q11 0 54 -1q32 -2 54 -2h13q24 1 59.5 7.5t59.5 19.5 q58 31 75 90q5 21 5 42q0 36 -19 71q-29 54 -92 73q-36 10 -72.5 10t-72.5 -10q-52 -14 -83.5 -46t-31.5 -79v-222q0 -44 22 -76q39 -53 123 -66q19 -3 39 -3q23 0 48 4q92 14 129 75l-43 26q-30 -43 -93 -51q-19 -3 -39 -3t-40 3q-57 10 -83 45q-12 17 -12 42z" />
<glyph unicode="&#xea;" horiz-adv-x="457" d="M230 629l-42 -47h-50l60 83h64l59 -83h-49zM101 362q0 28 21.5 47.5t55.5 29.5q30 8 60 8t59 -8q43 -12 63 -49q14 -24 14 -49q0 -14 -4 -28q-12 -40 -53 -59q-30 -14 -70 -19q-36 -5 -83 -5h-9q-52 1 -54 1v131zM101 136v51q11 0 54 -1q32 -2 54 -2h13q24 1 59.5 7.5 t59.5 19.5q58 31 75 90q5 21 5 42q0 36 -19 71q-29 54 -92 73q-36 10 -72.5 10t-72.5 -10q-52 -14 -83.5 -46t-31.5 -79v-222q0 -44 22 -76q39 -53 123 -66q19 -3 39 -3q23 0 48 4q92 14 129 75l-43 26q-30 -43 -93 -51q-19 -3 -39 -3t-40 3q-57 10 -83 45q-12 17 -12 42z " />
<glyph unicode="&#xeb;" horiz-adv-x="457" d="M132 578v63h59v-63h-59zM280 578v63h59v-63h-59zM101 362v-131q2 0 54 -1h9q47 0 83 5q40 5 70 19q41 19 53 59q4 14 4 28q0 25 -14 49q-20 37 -63 49q-29 8 -59 8t-60 -8q-34 -10 -55.5 -29.5t-21.5 -47.5zM101 187v-51q0 -25 12 -42q26 -35 83 -45q20 -3 40 -3t39 3 q63 8 93 51l43 -26q-37 -61 -129 -75q-25 -4 -48 -4q-20 0 -39 3q-84 13 -123 66q-22 32 -22 76v222q0 47 31.5 79t83.5 46q36 10 72.5 10t72.5 -10q63 -19 92 -73q19 -35 19 -71q0 -21 -5 -42q-17 -59 -75 -90q-24 -13 -59.5 -19.5t-59.5 -7.5h-13q-22 0 -54 2q-43 1 -54 1 z" />
<glyph unicode="&#xec;" horiz-adv-x="176" d="M21 666v7h65l29 -87h-44zM63 0v491h51v-491h-51z" />
<glyph unicode="&#xed;" horiz-adv-x="176" d="M63 491v-491h51v491h-51zM153 673v-7l-50 -80h-44l29 87h65z" />
<glyph unicode="&#xee;" horiz-adv-x="176" d="M63 491v-491h51v491h-51zM88 633l-42 -47h-50l60 83h64l59 -83h-49z" />
<glyph unicode="&#xef;" horiz-adv-x="176" d="M-13 627v63h59v-63h-59zM135 627v63h59v-63h-59zM63 0v491h51v-491h-51z" />
<glyph unicode="&#xf1;" horiz-adv-x="474" d="M177 584l-31 10q4 20 21.5 37t37.5 18h5q19 0 41 -14q24 -16 31 -16h1q18 1 23 22l31 -13q-4 -20 -18 -33t-35 -14h-2q-18 0 -40 15q-23 16 -33 16q-11 -1 -20.5 -9t-11.5 -19zM424 0h-51v358q0 42 -40.5 66.5t-95.5 24.5q-56 0 -96.5 -25.5t-40.5 -73.5v-350h-51v492h51 v-46q48 52 136 52h4q74 0 128 -36q56 -36 56 -105v-357z" />
<glyph unicode="&#xf2;" horiz-adv-x="469" d="M304 55q67 23 67 75v232q0 28 -21.5 47.5t-55.5 29.5q-30 8 -60 8t-60 -8q-77 -21 -77 -77v-232q0 -32 27.5 -54t69.5 -29q21 -4 41 -4q36 0 69 12zM421 362v-232q0 -87 -101 -122q-40 -13 -84 -13q-24 0 -50 4q-61 11 -100 44.5t-39 86.5v232q0 47 31.5 79t82.5 46 q34 10 73 10q40 0 73 -10q51 -14 82.5 -46t31.5 -79zM174 659v7h65l29 -87h-44z" />
<glyph unicode="&#xf3;" horiz-adv-x="469" d="M307 665v-7l-50 -80h-44l29 87h65zM304 55q-33 -12 -69 -12q-20 0 -41 4q-42 7 -69.5 29t-27.5 54v232q0 56 77 77q30 8 60 8t60 -8q34 -10 55.5 -29.5t21.5 -47.5v-232q0 -52 -67 -75zM421 130v232q0 47 -31.5 79t-82.5 46q-33 10 -73 10q-39 0 -73 -10 q-51 -14 -82.5 -46t-31.5 -79v-232q0 -53 39 -86.5t100 -44.5q26 -4 50 -4q44 0 84 13q101 35 101 122z" />
<glyph unicode="&#xf4;" horiz-adv-x="469" d="M237 630l-42 -47h-50l60 83h64l59 -83h-49zM304 55q-33 -12 -69 -12q-20 0 -41 4q-42 7 -69.5 29t-27.5 54v232q0 56 77 77q30 8 60 8t60 -8q34 -10 55.5 -29.5t21.5 -47.5v-232q0 -52 -67 -75zM421 130v232q0 47 -31.5 79t-82.5 46q-33 10 -73 10q-39 0 -73 -10 q-51 -14 -82.5 -46t-31.5 -79v-232q0 -53 39 -86.5t100 -44.5q26 -4 50 -4q44 0 84 13q101 35 101 122z" />
<glyph unicode="&#xf5;" horiz-adv-x="469" d="M175 584l-31 10q4 20 21.5 37t37.5 18h5q19 0 41 -14q24 -16 31 -16h1q18 1 23 22l31 -13q-4 -20 -18 -33t-35 -14h-2q-18 0 -40 15q-23 16 -33 16q-11 -1 -20.5 -9t-11.5 -19zM304 55q67 23 67 75v232q0 28 -21.5 47.5t-55.5 29.5q-30 8 -60 8t-60 -8q-77 -21 -77 -77 v-232q0 -32 27.5 -54t69.5 -29q21 -4 41 -4q36 0 69 12zM421 362v-232q0 -87 -101 -122q-40 -13 -84 -13q-24 0 -50 4q-61 11 -100 44.5t-39 86.5v232q0 47 31.5 79t82.5 46q34 10 73 10q40 0 73 -10q51 -14 82.5 -46t31.5 -79z" />
<glyph unicode="&#xf6;" horiz-adv-x="469" d="M133 580v63h59v-63h-59zM281 580v63h59v-63h-59zM304 55q67 23 67 75v232q0 28 -21.5 47.5t-55.5 29.5q-30 8 -60 8t-60 -8q-77 -21 -77 -77v-232q0 -32 27.5 -54t69.5 -29q21 -4 41 -4q36 0 69 12zM421 362v-232q0 -87 -101 -122q-40 -13 -84 -13q-24 0 -50 4 q-61 11 -100 44.5t-39 86.5v232q0 47 31.5 79t82.5 46q34 10 73 10q40 0 73 -10q51 -14 82.5 -46t31.5 -79z" />
<glyph unicode="&#xf8;" horiz-adv-x="469" d="M421 362v-232q0 -87 -101 -122q-40 -13 -84 -13q-24 0 -50 4q-32 5 -55 16l-25 -46h-51l38 68q-46 36 -46 93v232q0 47 31.5 79t82.5 46q34 10 73 10q40 0 73 -10q17 -5 28 -10l22 40h53l-35 -63q46 -36 46 -92zM304 55q67 23 67 75v232q0 26 -21 47l-195 -351 q20 -8 39 -11q21 -4 41 -4q36 0 69 12zM311 433l-17 6q-30 8 -60 8t-60 -8q-77 -21 -77 -77v-232q0 -28 20 -48z" />
<glyph unicode="&#xf9;" d="M49 490h50v-355q0 -43 41 -67.5t96 -24.5q56 0 96.5 26t40.5 73v348h50v-490h-50v47q-46 -51 -136 -53q-77 0 -132.5 36t-55.5 105v355zM175 664v7h65l29 -87h-44z" />
<glyph unicode="&#xfa;" d="M297 669v-7l-50 -80h-44l29 87h65zM49 490h50v-355q0 -43 41 -67.5t96 -24.5q56 0 96.5 26t40.5 73v348h50v-490h-50v47q-46 -51 -136 -53q-77 0 -132.5 36t-55.5 105v355z" />
<glyph unicode="&#xfb;" d="M240 629l-42 -47h-50l60 83h64l59 -83h-49zM49 490h50v-355q0 -43 41 -67.5t96 -24.5q56 0 96.5 26t40.5 73v348h50v-490h-50v47q-46 -51 -136 -53q-77 0 -132.5 36t-55.5 105v355z" />
<glyph unicode="&#xfc;" d="M131 582v63h59v-63h-59zM279 582v63h59v-63h-59zM49 490h50v-355q0 -43 41 -67.5t96 -24.5q56 0 96.5 26t40.5 73v348h50v-490h-50v47q-46 -51 -136 -53q-77 0 -132.5 36t-55.5 105v355z" />
<glyph unicode="&#xfd;" horiz-adv-x="471" d="M304 669v-7l-50 -80h-44l29 87h65zM422 -68v-9q0 -49 -32 -81.5t-81 -45.5q-34 -10 -73 -10q-54 0 -103 19.5t-71 61.5l43 23q37 -54 131 -54q34 0 59 7q32 9 54 29.5t23 50.5v9v8v98q-49 -45 -128 -48h-11q-73 0 -121 32q-64 38 -64 107v361h51v-360q0 -42 39 -65 q38 -22 97 -24l3 1q87 0 121 46q13 17 13 45v357h50v-558z" />
<glyph unicode="&#xff;" horiz-adv-x="471" d="M140 587v63h59v-63h-59zM288 587v63h59v-63h-59zM422 -68v-9q0 -49 -32 -81.5t-81 -45.5q-34 -10 -73 -10q-54 0 -103 19.5t-71 61.5l43 23q37 -54 131 -54q34 0 59 7q32 9 54 29.5t23 50.5v9v8v98q-49 -45 -128 -48h-11q-73 0 -121 32q-64 38 -64 107v361h51v-360 q0 -42 39 -65q38 -22 97 -24l3 1q87 0 121 46q13 17 13 45v357h50v-558z" />
<glyph unicode="&#x152;" horiz-adv-x="839" d="M472 651v-275h322v-51h-322q0 -200 4 -211q11 -32 51 -47.5t82 -15.5h185v-51h-185q-112 0 -160 68q-39 -57 -136 -72q-28 -4 -54 -4q-66 0 -125 26q-83 37 -83 110v446q0 48 41 81.5t99 46.5q39 8 81 8q21 0 42 -2q64 -6 108 -30v23h372v-50h-322zM101 574l1 -441 q0 -20 3 -26q14 -41 85 -58q36 -9 72 -9l72 9q71 17 85 58q3 6 3 26v491q-34 33 -112 40q-17 2 -34 2q-58 0 -110 -20q-65 -25 -65 -72z" />
<glyph unicode="&#x153;" horiz-adv-x="778" d="M421 187v-57q1 -20 13 -36q26 -35 83 -45q19 -3 39 -3t40 3q63 8 93 51l43 -26q-37 -61 -129 -75q-25 -4 -48 -4q-20 0 -39 3q-84 12 -119 74q-18 -43 -77 -64q-40 -13 -84 -13q-24 0 -50 4q-61 11 -100 44.5t-39 86.5v232q0 47 31.5 79t82.5 46q34 10 73 10q40 0 73 -10 q61 -17 89 -65q29 48 90 65q36 10 72.5 10t72.5 -10q63 -19 93 -73q18 -35 18 -71q0 -21 -6 -42q-16 -59 -74 -90q-24 -13 -59.5 -19.5t-60.5 -7.5h-13q-22 0 -54 2q-43 1 -54 1zM304 55q67 23 67 75v232q0 28 -21.5 47.5t-55.5 29.5q-30 8 -60 8t-60 -8q-77 -21 -77 -77 v-232q0 -32 27.5 -54t69.5 -29q21 -4 41 -4q36 0 69 12zM421 362v-131q2 0 55 -1h9q47 0 83 5q40 5 70 19q41 19 52 59q5 14 5 28q0 25 -13 49q-21 37 -64 49q-30 8 -59.5 8t-59.5 -8q-34 -10 -55.5 -29t-22.5 -45v-3z" />
<glyph unicode="&#x178;" horiz-adv-x="485" d="M116 454l128 -134l128 134q26 26 26 58v188h51v-187q0 -53 -38 -91l-142 -148v-273h-50v273l-142 148q-38 38 -38 91v187h51v-188q0 -32 26 -58zM145 746v55h57v-55h-57zM287 746v55h56v-55h-56z" />
<glyph unicode="&#x2c6;" horiz-adv-x="317" d="M164 741l-42 -47h-50l60 83h64l59 -83h-49z" />
<glyph unicode="&#x2dc;" horiz-adv-x="292" d="M76 637l-31 10q4 20 21.5 37t37.5 18h5q19 0 41 -14q24 -16 31 -16h1q18 1 23 22l31 -13q-4 -20 -18 -33t-35 -14h-2q-18 0 -40 15q-23 16 -33 16q-11 -1 -20.5 -9t-11.5 -19z" />
<glyph unicode="&#x2000;" horiz-adv-x="420" />
<glyph unicode="&#x2001;" horiz-adv-x="840" />
<glyph unicode="&#x2002;" horiz-adv-x="420" />
<glyph unicode="&#x2003;" horiz-adv-x="840" />
<glyph unicode="&#x2004;" horiz-adv-x="280" />
<glyph unicode="&#x2005;" horiz-adv-x="210" />
<glyph unicode="&#x2006;" horiz-adv-x="140" />
<glyph unicode="&#x2007;" horiz-adv-x="140" />
<glyph unicode="&#x2008;" horiz-adv-x="105" />
<glyph unicode="&#x2009;" horiz-adv-x="168" />
<glyph unicode="&#x200a;" horiz-adv-x="46" />
<glyph unicode="&#x2010;" horiz-adv-x="317" d="M43 299h215v-50h-215v50z" />
<glyph unicode="&#x2011;" horiz-adv-x="317" d="M43 299h215v-50h-215v50z" />
<glyph unicode="&#x2013;" horiz-adv-x="500" d="M43 249v50h398v-50h-398z" />
<glyph unicode="&#x2014;" horiz-adv-x="1000" d="M43 249v50h898v-50h-898z" />
<glyph unicode="&#x2018;" horiz-adv-x="203" d="M140 647v-67h-60v67q0 54 44 54q5 0 10 -1v-22q-8 1 -13.5 -9.5t-2.5 -21.5h22z" />
<glyph unicode="&#x2019;" horiz-adv-x="197" d="M80 634v67h60v-67q0 -54 -44 -54q-5 0 -10 1v22q8 -1 13.5 9.5t2.5 21.5h-22z" />
<glyph unicode="&#x201a;" horiz-adv-x="232" d="M80 2v67h60v-67q0 -54 -44 -54q-5 0 -10 1v22q8 -1 13.5 9.5t2.5 21.5h-22z" />
<glyph unicode="&#x201c;" horiz-adv-x="313" d="M246 647v-67h-60v67q0 54 44 54q5 0 10 -1v-22q-8 1 -13.5 -9.5t-2.5 -21.5h22zM140 647v-67h-60v67q0 54 44 54q5 0 10 -1v-22q-8 1 -13.5 -9.5t-2.5 -21.5h22z" />
<glyph unicode="&#x201d;" horiz-adv-x="315" d="M80 634v67h60v-67q0 -54 -44 -54q-5 0 -10 1v22q8 -1 13.5 9.5t2.5 21.5h-22zM186 634v67h60v-67q0 -54 -44 -54q-5 0 -10 1v22q8 -1 13.5 9.5t2.5 21.5h-22z" />
<glyph unicode="&#x201e;" horiz-adv-x="321" d="M192 2v67h60v-67q0 -54 -44 -54q-5 0 -10 1v22q8 -1 13.5 9.5t2.5 21.5h-22zM80 2v67h60v-67q0 -54 -44 -54q-5 0 -10 1v22q8 -1 13.5 9.5t2.5 21.5h-22z" />
<glyph unicode="&#x2026;" horiz-adv-x="516" d="M395 -1v68h60v-68h-60zM230 -1v68h60v-68h-60zM67 -1v68h60v-68h-60z" />
<glyph unicode="&#x202f;" horiz-adv-x="168" />
<glyph unicode="&#x205f;" horiz-adv-x="210" />
<glyph unicode="&#x20ac;" horiz-adv-x="522" d="M424 131l50 1q0 -47 -30.5 -79t-80.5 -46q-40 -11 -99 -11q-2 -1 -5 -1q-55 0 -92 11q-52 14 -84 46t-33 79v138h-48v45h48v52h-48v45h48v159q1 52 38.5 85.5t96.5 44.5q32 6 73 6h22q54 -2 92 -14q102 -35 102 -122h-50q0 52 -67 75q-41 13 -89 13q-35 0 -74 -7 q-41 -8 -67.5 -29t-26.5 -52v-159h148v-45h-148v-52h148v-45h-148v-138q0 -28 22 -47.5t58 -29.5q35 -9 84.5 -9t84.5 10q75 21 75 76z" />
<glyph unicode="&#x2122;" horiz-adv-x="1141" d="M806 234l213 466h62v-700h-51v561l7 71h-3l-21 -67l-186 -397h-41l-186 397l-21 67h-3l7 -71v-561h-51v700h62zM22 656v44h431v-44h-190l-2 -656h-51l2 656h-190z" />
</font>
</defs>
</svg>
