<?xml version="1.0" standalone="no"?>
<!DOCTYPE svg PUBLIC "-//W3C//DTD SVG 1.1//EN" "http://www.w3.org/Graphics/SVG/1.1/DTD/svg11.dtd" >
<svg xmlns="http://www.w3.org/2000/svg">
<metadata>
This is a custom SVG webfont generated by Font Squirrel.
Foundry     : Dalton Maag Ltd.
</metadata>
<defs>
<font id="webfontk6HTh2mm" horiz-adv-x="600" >
<font-face units-per-em="1000" ascent="800" descent="-200" />
<missing-glyph horiz-adv-x="250" />
<glyph unicode=" "  horiz-adv-x="250" />
<glyph unicode="&#x09;" horiz-adv-x="250" />
<glyph unicode="&#xa0;" horiz-adv-x="250" />
<glyph unicode="!" horiz-adv-x="283" d="M99 0q-3 21 -3 42q0 22 3 43q21 3 42 3q22 0 43 -3q3 -21 3 -42q0 -22 -3 -43q-21 -3 -42 -3q-22 0 -43 3zM109 719q8 1 16 1.5t16 0.5q10 0 19.5 -0.5t19.5 -1.5l-4 -514q-8 -1 -16 -1.5t-16 -0.5t-15.5 0.5t-15.5 1.5z" />
<glyph unicode="&#x22;" horiz-adv-x="413" d="M75 719q7 1 17 1.5t18 0.5q9 0 18 -0.5t16 -1.5v-269q-7 -1 -16 -1.5t-18 -0.5q-8 0 -18 0.5t-17 1.5v269zM269 719q7 1 17 1.5t18 0.5q9 0 18 -0.5t16 -1.5v-269q-7 -1 -16 -1.5t-18 -0.5q-8 0 -18 0.5t-17 1.5v269z" />
<glyph unicode="#" horiz-adv-x="736" d="M206 213h-132q-1 6 -1.5 12.5t-0.5 13.5q0 8 0.5 16t1.5 16h137l17 198h-133q-3 13 -3 28q0 14 3 29h138l14 165q9 2 17 2h18h15q7 0 15 -1l-14 -166h207l14 165q9 2 18 2h18h15q7 0 15 -1l-14 -166h126q1 -6 1.5 -12t0.5 -13q0 -8 -0.5 -16t-1.5 -16h-131l-17 -198h126 q1 -6 1.5 -12.5t0.5 -13.5q0 -8 -0.5 -16t-1.5 -16h-131l-15 -184q-8 -1 -16 -1.5t-16 -0.5t-16 0.5t-16 1.5l15 184h-207l-15 -184q-8 -1 -17 -1.5t-17 -0.5t-17 0.5t-17 1.5zM484 271l17 198h-208l-16 -198h207z" />
<glyph unicode="$" d="M273 -11q-6 -1 -10 -1h-9q-59 0 -98 8.5t-73 19.5q2 15 7 32.5t11 31.5q14 -4 29 -9t33.5 -9t41.5 -7t53 -3q95 0 139.5 40.5t44.5 102.5q0 30 -7.5 51t-26 38.5t-51 33.5t-81.5 35q-35 13 -66.5 27.5t-55.5 35.5t-38 50.5t-14 74.5q0 70 43.5 115.5t127.5 58.5v90 q13 3 28 3q14 0 29 -3v-86q22 0 44.5 -2t42.5 -5t36.5 -7t26.5 -7q-2 -15 -5.5 -30.5t-8.5 -29.5q-24 8 -61.5 14.5t-74.5 6.5q-83 0 -119 -32.5t-36 -84.5q0 -27 11 -46.5t30.5 -34t46.5 -26.5t58 -24q42 -17 78.5 -34.5t62.5 -41t41 -55.5t15 -78q0 -87 -50 -139.5 t-138 -67.5v-113q-14 -3 -27 -3q-15 0 -30 3v107z" />
<glyph unicode="%" horiz-adv-x="1050" d="M320 0q-10 -2 -19 -2h-18h-18q-10 0 -18 2l484 707q8 1 16.5 1.5t16.5 0.5q10 0 19.5 -0.5t19.5 -1.5zM409 507q0 -45 -11.5 -84t-34 -67.5t-57.5 -44.5t-81 -16t-80.5 16t-57 44.5t-34 67.5t-11.5 84t11.5 83.5t34 67t57 45t81.5 16.5q46 0 80.5 -16.5t57 -45t34 -67 t11.5 -83.5zM112 507q0 -75 26.5 -115t86.5 -40q58 0 86 40t28 115t-26.5 115t-86.5 40q-58 0 -86 -40t-28 -115zM994 202q0 -45 -11.5 -84t-34 -67.5t-57.5 -44.5t-81 -16t-80.5 16t-57 44.5t-34 67.5t-11.5 84t11.5 83.5t34 67t57 45t81.5 16.5q46 0 80.5 -16.5t57 -45 t34 -67t11.5 -83.5zM697 202q0 -75 26.5 -115t86.5 -40q58 0 86 40t28 115t-26.5 115t-86.5 40q-58 0 -86 -40t-28 -115z" />
<glyph unicode="&#x26;" horiz-adv-x="760" d="M552 456v91l62 60h4v-151h125q1 -7 1.5 -14.5t0.5 -15.5t-0.5 -15.5t-1.5 -15.5h-125v-166q0 -61 -21 -106t-58.5 -75t-89.5 -45t-115 -15q-55 0 -103.5 12.5t-85 38.5t-57.5 67t-21 98q0 30 9 62.5t26 61t41.5 51.5t55.5 35q-47 17 -78 53t-31 98q0 43 16.5 74.5 t45 51.5t66.5 30t80 10q24 0 52.5 -3t60.5 -13q-2 -18 -5.5 -29t-10.5 -24q-21 5 -42.5 9t-49.5 4q-38 0 -65 -10t-44 -25.5t-25.5 -35.5t-8.5 -40q0 -54 34.5 -81t109.5 -27h248zM552 395h-228q-43 0 -76.5 -15.5t-57 -41.5t-36 -59t-12.5 -69q0 -74 50 -115t144 -41 q67 0 108.5 16t64.5 43t32 62.5t11 74.5v145z" />
<glyph unicode="'" horiz-adv-x="219" d="M75 719q7 1 17 1.5t18 0.5q9 0 18 -0.5t16 -1.5v-269q-7 -1 -16 -1.5t-18 -0.5q-8 0 -18 0.5t-17 1.5v269z" />
<glyph unicode="(" horiz-adv-x="290" d="M240 -167q-8 -1 -18 -1.5t-19 -0.5q-7 0 -14 0.5t-14 1.5q-22 33 -44.5 82t-40.5 110.5t-29 132.5t-11 146t11 146t29 132.5t40.5 111t44.5 82.5q8 1 15.5 1.5t15.5 0.5q9 0 17 -0.5t17 -1.5l-33 -63q-21 -41 -41 -101t-34.5 -137t-14.5 -171t14.5 -171t34.5 -136.5 t41 -100.5z" />
<glyph unicode=")" horiz-adv-x="290" d="M50 -167l33 63q21 41 41 100.5t34.5 136.5t14.5 171t-14.5 171t-34.5 137t-41 101l-33 63q9 1 17 1.5t17 0.5q8 0 15.5 -0.5t15.5 -1.5q22 -33 44.5 -82.5t40.5 -111t29 -132.5t11 -146t-11 -146t-29 -132.5t-40.5 -110.5t-44.5 -82q-7 -1 -14 -1.5t-14 -0.5 q-9 0 -19 0.5t-18 1.5z" />
<glyph unicode="*" horiz-adv-x="486" d="M228 719q12 3 25 3q11 0 25 -3l5 -124q-8 -2 -15 -2h-15h-15q-8 0 -16 2zM192 579q-5 -30 -18 -58l-117 44q3 26 16 48zM187 495q25 -13 50 -35l-78 -98q-26 12 -41 30zM267 460q22 21 49 37l69 -105q-10 -10 -19.5 -17t-21.5 -12zM429 613q7 -12 11 -23.5t4 -24.5 l-116 -43q-6 13 -11 28t-9 30z" />
<glyph unicode="+" d="M268 318h-172q-2 8 -2 16v17v16q0 8 2 16h172v185q8 1 16 1.5t16 0.5t16 -0.5t17 -1.5v-185h172q1 -8 1.5 -16t0.5 -16t-0.5 -16.5t-1.5 -16.5h-172v-185q-9 -2 -17 -2h-16h-16q-8 0 -16 2v185z" />
<glyph unicode="," horiz-adv-x="205" d="M84 85q8 1 17 1.5t17 0.5t17 -0.5t18 -1.5l-54 -198q-10 -2 -19 -2h-16h-18q-8 0 -16 2z" />
<glyph unicode="-" horiz-adv-x="353" d="M308 318q1 -5 1.5 -15.5t0.5 -18.5t-0.5 -18t-1.5 -15h-263q-1 5 -1.5 15t-0.5 18t0.5 18.5t1.5 15.5h263z" />
<glyph unicode="." horiz-adv-x="205" d="M60 0q-3 21 -3 42q0 22 3 43q21 3 42 3q22 0 43 -3q3 -21 3 -42q0 -22 -3 -43q-21 -3 -42 -3q-22 0 -43 3z" />
<glyph unicode="/" horiz-adv-x="411" d="M295 719q15 3 30 3q16 0 34 -3l-244 -719q-15 -3 -33 -3q-15 0 -30 3z" />
<glyph unicode="0" d="M54 319q0 72 16 133t47 105t77 68.5t106 24.5t106 -24.5t77 -68.5t47 -105t16 -133t-16 -133t-47 -105t-77 -68.5t-106 -24.5t-106 24.5t-77 68.5t-47 105t-16 133zM300 587q-83 0 -128.5 -67t-45.5 -201t45 -201t129 -67q83 0 128 67t45 201t-45 201t-128 67z" />
<glyph unicode="1" d="M138 471q-9 10 -15 22.5t-11 26.5l250 128h5v-588h143q1 -8 2 -14.5t1 -14.5t-1 -15l-2 -16h-365q-2 8 -2 28q0 10 0.5 19.5t1.5 12.5h154v490z" />
<glyph unicode="2" d="M64 0l-5 13l195 208l56 62q27 30 46.5 60t31 59.5t11.5 61.5q0 63 -37 93.5t-107 30.5q-51 0 -89.5 -13t-68.5 -27q-5 13 -9 28l-9 31q27 13 72 28.5t103 15.5q49 0 89.5 -11t69 -34t44 -57.5t15.5 -81.5q0 -32 -9 -63t-27.5 -63t-46.5 -66.5t-65 -73.5l-129 -137h305 q1 -8 1.5 -17t0.5 -18q0 -8 -0.5 -15t-1.5 -14h-436z" />
<glyph unicode="3" d="M228 -14q43 0 80.5 8.5t65 29t43 54.5t15.5 84q0 63 -41.5 97t-119.5 34q-22 0 -43.5 -1.5t-44.5 -6.5l-7 12l191 280h-284q-2 8 -2 15v15v17q0 8 2 16h395l4 -8l-197 -284q5 1 11 1h12q53 0 90 -18t60.5 -45.5t34 -60.5t10.5 -63q0 -65 -22.5 -110.5t-60.5 -74.5 t-87.5 -42.5t-104.5 -13.5q-21 0 -44 2t-46.5 6.5t-45 11t-37.5 14.5q9 29 28 60q27 -13 63.5 -21t81.5 -8z" />
<glyph unicode="4" d="M54 76l-7 10l300 575q12 -2 27 -8t31 -15l-253 -499h246v213q18 3 34 3t33 -3v-213h107q3 -17 3 -32q0 -16 -3 -31h-107v-136q-9 -2 -17 -2h-17h-17q-8 0 -16 2v136h-344z" />
<glyph unicode="5" d="M501 162q0 -65 -22.5 -110.5t-60 -74.5t-87 -42.5t-103.5 -13.5q-48 0 -87 7.5t-68 20.5q3 15 8 29.5t15 30.5q27 -11 57 -17t77 -6q42 0 78 8.5t62.5 28.5t42 53.5t15.5 83.5q0 30 -8 58t-28 50t-54 35.5t-85 13.5q-32 0 -63 -5l-51 -8l-7 7l13 329h326q2 -8 2 -15v-15 v-16q0 -9 -2 -17h-264l-7 -205q20 4 44 5t32 1q50 0 91.5 -15t71 -42.5t46 -67.5t16.5 -91z" />
<glyph unicode="6" d="M73 275q0 85 21 163t66 139.5t115 102.5t168 52q3 -9 4.5 -20t1.5 -19q0 -16 -1 -21q-64 -7 -114 -31t-87.5 -61.5t-61.5 -86.5t-36 -106l-4 -21q-2 -10 -3 -21q25 48 74 79t116 31q38 0 76 -13t68 -40.5t48.5 -71t18.5 -104.5q0 -58 -20 -102.5t-53 -74.5t-75 -45.5 t-85 -15.5q-53 0 -97 15t-75 49t-48 88.5t-17 134.5zM316 391q-33 0 -63 -12.5t-53 -35t-36.5 -55t-13.5 -72.5q0 -84 41 -124t115 -40q35 0 65.5 11t53 33t35 54t12.5 73q0 45 -12.5 77t-33.5 52t-49.5 29.5t-60.5 9.5z" />
<glyph unicode="7" d="M225 -75q-21 5 -35.5 11.5t-27.5 18.5l276 622h-367q-1 6 -1.5 14t-0.5 14q0 18 3 35h462l3 -3z" />
<glyph unicode="8" d="M300 -12q-45 0 -88.5 10.5t-77.5 33t-55 59t-21 88.5q0 45 15.5 78t40 57t54.5 40t58 27q-28 11 -52.5 26.5t-43 36.5t-29 48t-10.5 62q0 37 16 67.5t43.5 52.5t66 33.5t83.5 11.5t83.5 -11.5t66 -33.5t43.5 -52.5t16 -67.5q0 -35 -10.5 -62t-29 -48t-43 -36.5 t-52.5 -26.5q28 -11 58 -27t54.5 -40t40 -57t15.5 -78q0 -52 -21 -88.5t-55 -59t-77.5 -33t-88.5 -10.5zM300 50q82 0 123.5 37t41.5 100q0 32 -13 57.5t-35 45t-52.5 34t-64.5 25.5q-35 -11 -65 -25.5t-52 -34.5t-35 -45.5t-13 -57.5q0 -63 41.5 -99.5t123.5 -36.5z M300 660q-69 0 -104 -31t-35 -84q0 -28 12 -49t31.5 -37t44.5 -27t51 -18q26 7 51 18t44.5 27t31.5 37t12 49q0 53 -35 84t-104 31z" />
<glyph unicode="9" d="M529 360q0 -85 -21 -163t-66 -139.5t-115 -102.5t-168 -52q-6 18 -6 43v9q0 4 1 8q64 7 114 31t87.5 61.5t61.5 86.5t36 106l4 21q2 10 3 21q-25 -48 -74 -79t-116 -31q-38 0 -76 13t-68 40.5t-48.5 71t-18.5 104.5q0 58 20 102.5t53 74.5t74.5 45.5t85.5 15.5 q53 0 97 -15t75 -49t48 -89t17 -134zM286 244q33 0 63 12.5t53 35t36.5 55t13.5 72.5q0 84 -41 124t-115 40q-35 0 -65.5 -11.5t-53 -33t-35 -53.5t-12.5 -73q0 -45 12.5 -77t33.5 -52t49.5 -29.5t60.5 -9.5z" />
<glyph unicode=":" horiz-adv-x="205" d="M60 0q-3 21 -3 42q0 22 3 43q21 3 42 3q22 0 43 -3q3 -21 3 -42q0 -22 -3 -43q-21 -3 -42 -3q-22 0 -43 3zM60 428q-3 21 -3 42q0 22 3 43q21 3 42 3q22 0 43 -3q3 -21 3 -42q0 -22 -3 -43q-21 -3 -42 -3q-22 0 -43 3z" />
<glyph unicode=";" horiz-adv-x="222" d="M84 85q8 1 17 1.5t17 0.5t17 -0.5t18 -1.5l-54 -198q-10 -2 -19 -2h-16h-18q-8 0 -16 2zM77 428q-3 21 -3 42q0 22 3 43q21 3 42 3q22 0 43 -3q3 -21 3 -42q0 -22 -3 -43q-21 -3 -42 -3q-22 0 -43 3z" />
<glyph unicode="&#x3c;" d="M505 558q3 -17 3 -33q0 -25 -3 -37l-347 -140l347 -136q4 -15 4 -34q0 -17 -1 -26t-3 -14l-418 173q-2 7 -3 15.5t-1 22.5q0 23 4 36z" />
<glyph unicode="=" d="M513 292q1 -5 1.5 -16t0.5 -19t-0.5 -18t-1.5 -15h-426q-1 5 -1.5 15t-0.5 18t0.5 19t1.5 16h426zM513 474q1 -5 1.5 -16t0.5 -19t-0.5 -18t-1.5 -15h-426q-1 5 -1.5 15t-0.5 18t0.5 19t1.5 16h426z" />
<glyph unicode="&#x3e;" d="M87 138q-3 16 -3 33q0 25 3 37l347 140l-347 136q-4 15 -4 34q0 17 1 26t3 14l418 -173q2 -7 3 -15.5t1 -22.5q0 -23 -4 -36z" />
<glyph unicode="?" horiz-adv-x="485" d="M182 2q-3 21 -3 42q0 22 3 43q21 3 42 3q22 0 43 -3q3 -21 3 -42q0 -22 -3 -43q-21 -3 -42 -3q-22 0 -43 3zM189 360l34 11q25 8 50.5 20.5t46 30.5t33 43t12.5 58q0 68 -48 102.5t-125 34.5q-47 0 -75 -7t-55 -16q-6 14 -10 28l-9 32q44 14 79.5 19.5t79.5 5.5 q117 0 177 -53t60 -144q0 -51 -22 -88.5t-52 -62t-60.5 -38.5t-47.5 -19v-112q-9 -1 -18 -1.5t-17 -0.5t-17 0.5t-16 1.5v155z" />
<glyph unicode="@" horiz-adv-x="1021" d="M630 453q-25 7 -52 7q-45 0 -84 -18t-68 -50t-46 -76.5t-17 -96.5q0 -56 24.5 -82.5t79.5 -26.5q24 0 46.5 5.5t51.5 20.5zM633 130q14 -11 32.5 -14t34.5 -3q45 0 80 26t59.5 67t37 91t12.5 98q0 135 -78.5 205t-221.5 70q-108 0 -192.5 -39t-142.5 -103t-88 -146 t-30 -167q0 -83 23.5 -142.5t64.5 -97.5t96.5 -56t119.5 -18q46 0 88.5 8t77.5 20l8 -21q4 -12 7 -32q-36 -15 -84.5 -23.5t-113.5 -8.5q-75 0 -140 22.5t-113.5 68t-76.5 114.5t-28 162q0 60 14 122t42.5 119.5t71.5 108t102 88t134 59.5t167 22q76 0 142 -20.5t114.5 -62 t76 -104.5t27.5 -148q0 -62 -17.5 -122t-50.5 -107.5t-81.5 -77t-111.5 -29.5q-67 0 -109 27q-29 -19 -67 -27.5t-76 -8.5q-37 0 -66 12t-48.5 33t-29.5 49t-10 60q0 69 23 127t62.5 100t92.5 65.5t112 23.5q36 0 67 -5.5t64 -14.5z" />
<glyph unicode="A" horiz-adv-x="602" d="M260 719q7 1 19 1.5t22 0.5q11 0 22.5 -0.5t18.5 -1.5l240 -719q-6 -1 -17 -1.5t-21 -0.5q-9 0 -19 0.5t-17 1.5l-60 183h-296l-57 -183q-8 -1 -18.5 -1.5t-19.5 -0.5q-10 0 -20.5 0.5t-16.5 1.5zM428 247l-129 400l-127 -400h256z" />
<glyph unicode="B" horiz-adv-x="587" d="M101 719l29 3q18 2 39 4t42.5 3t38.5 1q118 0 181 -45.5t63 -141.5q0 -31 -9.5 -56.5t-25.5 -46t-37.5 -34.5t-44.5 -21q31 -4 60 -16.5t51.5 -35t36 -56t13.5 -80.5q0 -54 -21.5 -93t-60 -65t-91 -38.5t-114.5 -12.5q-16 0 -36 1t-40.5 2.5t-40 4t-33.5 4.5v719z M265 413q81 0 118.5 36t37.5 94q0 54 -39.5 90.5t-124.5 36.5q-26 0 -49.5 -2t-37.5 -4v-251h95zM170 56q14 -2 37.5 -3.5t49.5 -1.5q39 0 76.5 7t66.5 24t46.5 45t17.5 70t-15 70.5t-41 46.5t-61 26t-75 8h-102v-292z" />
<glyph unicode="C" horiz-adv-x="618" d="M549 82q8 -15 14 -29t9 -29q-34 -17 -81 -26.5t-99 -9.5q-73 0 -133.5 24t-103.5 70t-67 114t-24 156q0 90 23.5 160.5t66 119t103 74t135.5 25.5q63 0 105 -9t61 -15q-2 -18 -5.5 -30t-10.5 -29l-26 8q-14 4 -31 7t-39.5 5t-52.5 2q-59 0 -106 -21.5t-80 -62.5t-51 -100 t-18 -134q0 -77 20 -134t55.5 -94.5t83 -55.5t102.5 -18q47 0 85.5 9t64.5 23z" />
<glyph unicode="D" horiz-adv-x="699" d="M101 719q14 2 34.5 4t43.5 3.5t46 2.5t42 1q94 0 163.5 -25.5t115 -73t67.5 -116t22 -154.5q0 -373 -368 -373q-21 0 -45 1t-46.5 2.5t-42 4t-32.5 4.5v719zM170 60q18 -2 42.5 -4t50.5 -2q69 0 124.5 15t94.5 51t60 95.5t21 148.5q0 155 -79.5 227.5t-220.5 72.5 q-23 0 -49.5 -1t-43.5 -4v-599z" />
<glyph unicode="E" horiz-adv-x="540" d="M101 719h385q1 -6 1.5 -14.5t0.5 -16.5q0 -7 -0.5 -16.5t-1.5 -15.5h-316v-243h254q1 -6 1.5 -14.5t0.5 -16.5q0 -7 -0.5 -16.5t-1.5 -15.5h-254v-287h325q1 -6 1.5 -14.5t0.5 -16.5q0 -7 -0.5 -16.5t-1.5 -15.5h-394v719z" />
<glyph unicode="F" horiz-adv-x="502" d="M101 719h353q1 -6 1.5 -14.5t0.5 -16.5q0 -7 -0.5 -16.5t-1.5 -15.5h-284v-243h246q1 -6 1.5 -14.5t0.5 -16.5q0 -7 -0.5 -16.5t-1.5 -15.5h-246v-350q-7 -1 -16 -1.5t-18 -0.5q-10 0 -19.5 0.5t-15.5 1.5v719z" />
<glyph unicode="G" horiz-adv-x="690" d="M533 371q7 1 17 1.5t18 0.5q9 0 18 -0.5t16 -1.5v-350q-17 -9 -40.5 -15t-50 -10t-54.5 -6t-55 -2q-72 0 -134 23t-107 69t-70.5 114t-25.5 158t25 160.5t69.5 119t105 74t131.5 25.5q63 0 105 -8.5t68 -16.5q-2 -18 -5.5 -31t-10.5 -30q-22 8 -59 16.5t-94 8.5 t-105 -21.5t-82.5 -62.5t-54 -100t-19.5 -134q0 -77 21 -133.5t57 -93.5t84.5 -55t103.5 -18q45 0 75.5 3.5t52.5 11.5v304z" />
<glyph unicode="H" horiz-adv-x="694" d="M101 719q7 1 17 1.5t18 0.5q9 0 18 -0.5t16 -1.5v-306h354v306q7 1 16 1.5t18 0.5q8 0 18 -0.5t17 -1.5v-719q-6 -1 -15.5 -1.5t-19.5 -0.5q-9 0 -18 0.5t-16 1.5v350h-354v-350q-7 -1 -16 -1.5t-18 -0.5q-10 0 -19.5 0.5t-15.5 1.5v719z" />
<glyph unicode="I" horiz-adv-x="271" d="M101 719q7 1 17 1.5t18 0.5q9 0 18 -0.5t16 -1.5v-719q-7 -1 -16 -1.5t-18 -0.5q-10 0 -19.5 0.5t-15.5 1.5v719z" />
<glyph unicode="J" horiz-adv-x="385" d="M221 658h-132q-1 5 -1.5 13.5t-0.5 16.5q0 7 0.5 16.5t1.5 14.5h200v-576q0 -44 -14 -74t-37.5 -48t-53.5 -25.5t-62 -7.5q-30 0 -52.5 4t-39.5 9q3 28 17 61q13 -4 30 -7.5t37 -3.5q18 0 36.5 3.5t34.5 14t26 30.5t10 53v506z" />
<glyph unicode="K" horiz-adv-x="593" d="M101 719q7 1 17 1.5t18 0.5q9 0 18 -0.5t16 -1.5v-719q-7 -1 -16 -1.5t-18 -0.5q-10 0 -19.5 0.5t-15.5 1.5v719zM217 368l253 351q8 1 16.5 1.5t16.5 0.5q11 0 21 -0.5t21 -1.5l-246 -344l284 -375q-11 -1 -22.5 -1.5t-22.5 -0.5q-9 0 -18.5 0.5t-18.5 1.5z" />
<glyph unicode="L" horiz-adv-x="497" d="M101 719q6 1 15.5 1.5t19.5 0.5q9 0 18 -0.5t16 -1.5v-656h307q1 -6 1.5 -15.5t0.5 -16.5q0 -8 -0.5 -16.5t-1.5 -14.5h-376v719z" />
<glyph unicode="M" horiz-adv-x="815" d="M121 719q6 1 19 1.5t24 0.5t24 -0.5t20 -1.5l201 -479l199 479q6 1 19.5 1.5t23.5 0.5t23 -0.5t20 -1.5l35 -719q-7 -1 -16 -1.5t-18 -0.5q-10 0 -19.5 0.5t-15.5 1.5l-27 612l-198 -463q-7 -2 -14 -2h-14h-13q-7 0 -14 2l-196 464l-29 -613q-7 -1 -16 -1.5t-18 -0.5 q-10 0 -19.5 0.5t-15.5 1.5z" />
<glyph unicode="N" horiz-adv-x="688" d="M101 719q7 1 18.5 1.5t19.5 0.5t19 -0.5t18 -1.5l344 -602v602q7 1 15.5 1.5t17.5 0.5q8 0 17.5 -0.5t16.5 -1.5v-719q-6 -1 -17.5 -1.5t-20.5 -0.5q-8 0 -19 0.5t-18 1.5l-344 597v-597q-7 -1 -15.5 -1.5t-17.5 -0.5q-10 0 -19 0.5t-15 1.5v719z" />
<glyph unicode="O" horiz-adv-x="722" d="M361 -12q-75 0 -131 27.5t-92.5 77t-55 118t-18.5 149.5t18.5 149t55 117.5t92.5 77t131 27.5t131 -27.5t92.5 -77t55 -117.5t18.5 -149t-18.5 -149.5t-55 -118t-92.5 -77t-131 -27.5zM361 51q58 0 100 22.5t70 63.5t41.5 98t13.5 125t-13.5 125t-41.5 97.5t-70 63 t-100 22.5t-100.5 -22.5t-70 -63t-41 -97.5t-13.5 -125t13.5 -125t41 -98t70 -63.5t100.5 -22.5z" />
<glyph unicode="P" horiz-adv-x="554" d="M170 346q10 -1 18 -2h14q8 -1 17.5 -1.5t24.5 -0.5q36 0 71 6t63.5 24.5t46 52t17.5 88.5q0 44 -13.5 73.5t-38.5 47.5t-61 26t-80 8q-26 0 -46 -1.5t-33 -3.5v-317zM101 719q10 1 28 3.5t39 3.5l44 4q23 1 41 1q59 0 107 -12t82.5 -38t53.5 -67.5t19 -100.5 q0 -63 -21.5 -108t-58 -73t-85 -41t-101.5 -13q-23 0 -40 1t-39 3v-282q-7 -1 -16 -1.5t-18 -0.5q-10 0 -19.5 0.5t-15.5 1.5v719z" />
<glyph unicode="Q" horiz-adv-x="722" d="M361 -12q-75 0 -131 27.5t-92.5 77t-55 118t-18.5 149.5t18.5 149t55 117.5t92.5 77t131 27.5t131 -27.5t92.5 -77t55 -117.5t18.5 -149t-18.5 -149.5t-55 -118t-92.5 -77t-131 -27.5zM361 51q58 0 100 22.5t70 63.5t41.5 98t13.5 125t-13.5 125t-41.5 97.5t-70 63 t-100 22.5t-100.5 -22.5t-70 -63t-41 -97.5t-13.5 -125t13.5 -125t41 -98t70 -63.5t100.5 -22.5zM661 -72q0 -17 -2.5 -31.5t-9.5 -30.5l-217 43q0 17 3.5 31t9.5 29z" />
<glyph unicode="R" horiz-adv-x="587" d="M101 722l39 4l32 2q15 2 32 2.5t40 0.5q48 0 94.5 -10t83.5 -34.5t59.5 -66t22.5 -104.5q0 -39 -14 -71t-36.5 -57.5t-52 -44t-60.5 -30.5l-8 -3l229 -310q-10 -2 -20 -2h-20h-20q-9 0 -19 2l-252 333v4l22 6q34 9 66 23.5t56.5 35t39.5 48.5t15 66q0 78 -48 117t-130 39 q-21 0 -39 -1t-43 -4v-667q-7 -1 -17 -1.5t-18 -0.5q-9 0 -18 0.5t-16 1.5v722z" />
<glyph unicode="S" horiz-adv-x="541" d="M74 80q14 -4 29 -9t33.5 -9t41.5 -7t53 -3q48 0 82.5 11.5t57 31t33.5 46t11 57.5q0 30 -7.5 51.5t-26 39.5t-51 34.5t-81.5 35.5q-35 13 -66.5 28t-55.5 36.5t-38 51.5t-14 75q0 81 58.5 131t170.5 50q22 0 44.5 -2t42 -5t36 -7t26.5 -7q-2 -15 -5.5 -30.5t-8.5 -29.5 q-24 8 -61.5 14.5t-74.5 6.5q-83 0 -119 -34t-36 -86q0 -27 11 -47t30.5 -35t46.5 -27.5t58 -24.5q42 -17 78.5 -35t62.5 -42t41 -56.5t15 -78.5q0 -52 -18.5 -92.5t-52.5 -68t-83 -42t-110 -14.5q-59 0 -98 8.5t-73 19.5q2 15 7 32.5t11 31.5z" />
<glyph unicode="T" horiz-adv-x="495" d="M213 657h-193q-1 6 -1.5 14.5t-0.5 16.5q0 7 0.5 16t1.5 15h455q1 -6 1.5 -14t0.5 -16q0 -7 -0.5 -16.5t-1.5 -15.5h-193v-657q-7 -1 -16 -1.5t-18 -0.5q-10 0 -19.5 0.5t-15.5 1.5v657z" />
<glyph unicode="U" horiz-adv-x="676" d="M93 719q7 1 17 1.5t18 0.5q9 0 18 -0.5t16 -1.5v-434q0 -63 10.5 -106.5t32 -71.5t54.5 -40.5t79 -12.5q91 0 133.5 53t42.5 178v434q7 1 16 1.5t18 0.5q8 0 18 -0.5t17 -1.5v-443q0 -144 -59 -216t-186 -72t-186 72t-59 216v443z" />
<glyph unicode="V" horiz-adv-x="617" d="M31 719q6 1 17.5 1.5t21.5 0.5q9 0 21 -0.5t19 -1.5l201 -651l198 651q8 1 18.5 1.5t19.5 0.5q10 0 21.5 -0.5t17.5 -1.5l-236 -719q-7 -1 -20 -1.5t-22 -0.5q-10 0 -22 0.5t-19 1.5z" />
<glyph unicode="W" horiz-adv-x="921" d="M36 719q6 1 18 1.5t22 0.5q9 0 21 -0.5t19 -1.5l139 -642l165 642q6 1 19.5 1.5t22.5 0.5q8 0 22 -0.5t21 -1.5l164 -642l141 642q8 1 17.5 1.5t18.5 0.5q10 0 21.5 -0.5t17.5 -1.5l-174 -719q-7 -1 -21 -1.5t-23 -0.5q-10 0 -24.5 0.5t-21.5 1.5l-161 626l-160 -626 q-7 -1 -21 -1.5t-23 -0.5q-10 0 -24.5 0.5t-21.5 1.5z" />
<glyph unicode="X" horiz-adv-x="591" d="M99 0q-8 -2 -18 -2h-18q-9 0 -19 0.5t-19 1.5l193 377l-167 342q11 1 19 1.5t19 0.5q8 0 18.5 -0.5t18.5 -1.5l165 -340zM299 379l166 340q8 1 18 1.5t18 0.5q11 0 18.5 -0.5t18.5 -1.5l-167 -336l195 -383q-9 -1 -19.5 -1.5t-19.5 -0.5q-8 0 -17 0.5t-18 1.5z" />
<glyph unicode="Y" horiz-adv-x="574" d="M255 267l-231 452q6 1 17 1.5t21 0.5q9 0 21.5 -0.5t19.5 -1.5l188 -380l185 380q8 1 17.5 1.5t18.5 0.5q10 0 21 -0.5t17 -1.5l-226 -452v-267q-7 -1 -16 -1.5t-18 -0.5q-10 0 -19.5 0.5t-15.5 1.5v267z" />
<glyph unicode="Z" horiz-adv-x="555" d="M14 8l407 648h-349q-1 5 -1.5 14t-0.5 17t0.5 17.5t1.5 14.5h457l5 -7l-410 -649h377q1 -5 1.5 -15t0.5 -18t-0.5 -16.5t-1.5 -13.5h-482z" />
<glyph unicode="[" horiz-adv-x="301" d="M50 748h198q1 -7 1.5 -14t0.5 -15t-0.5 -15.5t-1.5 -12.5h-131v-803h131q1 -6 1.5 -12.5t0.5 -14.5t-0.5 -15.5t-1.5 -13.5h-198v916z" />
<glyph unicode="\" horiz-adv-x="411" d="M353 0q-15 -3 -30 -3q-18 0 -33 3l-244 719q18 3 33 3q16 0 31 -3z" />
<glyph unicode="]" horiz-adv-x="301" d="M53 -168q-2 6 -2 14v15v15q0 6 2 12h131v803h-131q-2 5 -2 13v15v15q0 7 2 14h198v-916h-198z" />
<glyph unicode="^" horiz-adv-x="551" d="M235 719q9 2 19.5 2.5t18.5 0.5q21 0 42 -3l164 -347h-66l-139 297l-137 -297h-66z" />
<glyph unicode="_" horiz-adv-x="506" d="M503 -24q3 -14 3 -28t-3 -27h-498q-4 12 -4 28q0 15 4 27h498z" />
<glyph unicode="`" horiz-adv-x="500" d="M145 723q11 1 23 1.5t24 0.5h22q12 0 23 -2l117 -130q-18 -3 -33 -3q-23 0 -41 3z" />
<glyph unicode="a" horiz-adv-x="513" d="M369 248q-17 2 -42.5 4.5t-48.5 2.5q-75 0 -116 -28t-41 -80q0 -33 12.5 -53t32.5 -30.5t44 -14t48 -3.5q31 0 58 3t53 8v191zM369 337q0 66 -31 96.5t-92 30.5q-40 0 -73 -5.5t-59 -13.5q-5 9 -8.5 26t-3.5 32q26 8 64 13.5t78 5.5q97 0 144 -42.5t47 -133.5v-337 q-35 -7 -85 -14t-95 -7q-93 0 -146.5 37t-53.5 120q0 40 15.5 71.5t43 53t66 32.5t84.5 11q36 0 62 -2.5t43 -4.5v31z" />
<glyph unicode="b" horiz-adv-x="590" d="M154 61q23 -8 48.5 -11.5t54.5 -3.5q40 0 76.5 13t64 40t44 68.5t16.5 99.5q0 91 -34.5 143t-111.5 52q-24 0 -52 -8t-51.5 -27t-39 -50.5t-15.5 -79.5v-236zM88 735q6 1 16.5 1.5t16.5 0.5q5 0 16 -0.5t17 -1.5v-296q21 32 60.5 57.5t102.5 25.5q47 0 86 -14.5 t66.5 -45.5t43 -78t15.5 -113q0 -133 -73 -208t-211 -75q-45 0 -87 8.5t-69 18.5v720z" />
<glyph unicode="c" horiz-adv-x="480" d="M426 64q5 -10 9.5 -27t6.5 -28q-25 -9 -57 -15t-71 -6q-125 0 -190 68.5t-65 198.5q0 57 16 105.5t47 84.5t77.5 56.5t107.5 20.5q38 0 72.5 -5.5t54.5 -12.5q0 -13 -3.5 -30t-7.5 -27q-20 7 -50.5 12t-65.5 5q-45 0 -78.5 -15.5t-56 -43.5t-33.5 -66t-11 -84 q0 -108 51.5 -158.5t139.5 -50.5q30 0 57.5 5t49.5 13z" />
<glyph unicode="d" horiz-adv-x="585" d="M431 735q6 1 17 1.5t16 0.5q6 0 16.5 -0.5t16.5 -1.5v-723q-31 -10 -77 -17t-96 -7q-55 0 -103 13t-83 43t-55.5 79t-20.5 121q0 66 18 117.5t51 87t79.5 54.5t102.5 19q33 0 65.5 -5.5t52.5 -12.5v231zM431 442q-20 8 -51 14.5t-64 6.5q-47 0 -81.5 -16t-57.5 -44.5 t-34.5 -68.5t-11.5 -88q0 -104 49.5 -151.5t140.5 -47.5q33 0 63 3.5t47 8.5v383z" />
<glyph unicode="e" horiz-adv-x="553" d="M130 245q0 -102 47 -150t141 -48q38 0 70.5 6.5t63.5 17.5q5 -11 8 -27t4 -29q-29 -13 -68 -20t-85 -7q-66 0 -113.5 19.5t-78 54.5t-45 83.5t-14.5 106.5q0 56 13.5 105t41 86t70.5 58t103 21q50 0 89 -17t65.5 -47.5t40 -73t13.5 -92.5q0 -9 -0.5 -23t-1.5 -24h-364z M430 300q0 31 -8 61t-25 52.5t-44 36.5t-65 14q-70 0 -109 -43t-47 -121h298z" />
<glyph unicode="f" horiz-adv-x="350" d="M124 454h-87q-1 5 -1.5 12t-0.5 15t0.5 16t1.5 13h87v45q0 94 41.5 141t131.5 47q21 0 38.5 -2.5t29.5 -5.5q-2 -19 -4.5 -31t-6.5 -26q-9 2 -24 4.5t-32 2.5q-26 0 -46 -5.5t-33.5 -20t-21 -40.5t-7.5 -67v-42h140q1 -5 1.5 -13t0.5 -16t-0.5 -15t-1.5 -12h-140v-454 q-6 -1 -16.5 -1.5t-16.5 -0.5q-5 0 -16 0.5t-17 1.5v454z" />
<glyph unicode="g" horiz-adv-x="536" d="M351 51q88 -2 125.5 -36.5t37.5 -91.5q0 -39 -20 -70.5t-56 -54t-85.5 -35t-107.5 -12.5q-45 0 -82.5 7t-65 22.5t-42.5 41t-15 62.5q0 38 22 73t57 52q-19 12 -32 30.5t-13 45.5q0 39 18.5 65t49.5 47q-35 22 -56 59t-21 88q0 37 12.5 69.5t37.5 56.5t61.5 38t84.5 14 q41 0 73 -10.5t56 -27.5q10 4 25 9t33 8.5t37 6t37 2.5q4 -15 4 -33q0 -19 -4 -34h-95q14 -22 21.5 -46.5t7.5 -52.5q0 -43 -15 -76t-41.5 -55.5t-62 -34.5t-76.5 -12q-43 0 -75 11q-28 -18 -39.5 -34.5t-11.5 -37.5q0 -10 3 -19t12.5 -16.5t26.5 -12t44 -4.5zM209 -9h-3 q-45 0 -72 -27q-29 -27 -29 -72q0 -24 11 -40t30.5 -25t45.5 -12.5t55 -3.5q93 0 145 31.5t52 75.5q0 38 -26 54t-85 17zM135 344q0 -52 30.5 -87.5t95.5 -35.5t96 35.5t31 87.5t-31 87.5t-96 35.5t-95.5 -35.5t-30.5 -87.5z" />
<glyph unicode="h" horiz-adv-x="572" d="M88 735q6 1 16.5 1.5t16.5 0.5q5 0 16 -0.5t17 -1.5v-316q10 18 26 36.5t37 33.5t47.5 24t58.5 9q88 0 129.5 -52.5t41.5 -147.5v-322q-6 -1 -16.5 -1.5t-16.5 -0.5q-5 0 -16 0.5t-17 1.5v302q0 85 -28 122t-81 37q-35 0 -65.5 -13t-52.5 -38.5t-34.5 -64t-12.5 -88.5 v-257q-6 -1 -16.5 -1.5t-16.5 -0.5q-5 0 -16 0.5t-17 1.5v735z" />
<glyph unicode="i" horiz-adv-x="273" d="M119 454h-64q-1 5 -1.5 12t-0.5 15t0.5 16t1.5 13h130v-510q-6 -1 -16.5 -1.5t-16.5 -0.5q-5 0 -16 0.5t-17 1.5v454zM86 635q-1 9 -1.5 22t-0.5 22q0 8 0.5 20t1.5 20q9 1 22 1.5t22 0.5q8 0 20 -0.5t20 -1.5q1 -8 1.5 -20t0.5 -20q0 -9 -0.5 -22t-1.5 -22 q-8 -1 -20 -1.5t-20 -0.5q-9 0 -22 0.5t-22 1.5z" />
<glyph unicode="j" horiz-adv-x="278" d="M124 454h-64q-1 5 -1.5 12t-0.5 15t0.5 16t1.5 13h130v-553q0 -42 -12 -69t-31.5 -42.5t-44.5 -22t-50 -6.5q-31 0 -51 4t-34 10q2 11 6 27.5t9 26.5q23 -10 58 -10q10 0 24.5 1t27.5 8t22.5 22t9.5 44v504zM91 635q-1 9 -1.5 22t-0.5 22q0 8 0.5 20t1.5 20q9 1 22 1.5 t22 0.5q8 0 20 -0.5t20 -1.5q1 -8 1.5 -20t0.5 -20q0 -9 -0.5 -22t-1.5 -22q-8 -1 -20 -1.5t-20 -0.5q-9 0 -22 0.5t-22 1.5z" />
<glyph unicode="k" horiz-adv-x="502" d="M88 735q6 1 16.5 1.5t16.5 0.5q5 0 16 -0.5t17 -1.5v-735q-6 -1 -17 -1.5t-16 -0.5q-6 0 -16.5 0.5t-16.5 1.5v735zM196 263l183 247q16 3 35 3q22 0 42 -3l-182 -240l215 -270q-18 -3 -36 -3q-22 0 -43 3z" />
<glyph unicode="l" horiz-adv-x="279" d="M88 735q6 1 16.5 1.5t16.5 0.5q5 0 16 -0.5t17 -1.5v-617q0 -26 6 -40.5t15 -21t20 -8t20 -1.5q11 0 23 1.5t20 3.5q5 -12 7 -26t3 -26q-14 -5 -31.5 -7t-32.5 -2q-21 0 -42 4.5t-37.5 17t-26.5 34t-10 56.5v632z" />
<glyph unicode="m" horiz-adv-x="836" d="M88 510q8 1 15.5 1.5t14.5 0.5q8 0 15 -0.5t15 -1.5q2 -18 3 -43t1 -45q9 19 23 37t33 32t43.5 22.5t55.5 8.5q29 0 50 -7t36.5 -19.5t26 -29.5t19.5 -38q11 16 25 33t32 30.5t41.5 22t52.5 8.5q89 0 128.5 -51t39.5 -146v-325q-6 -1 -16.5 -1.5t-16.5 -0.5q-5 0 -16 0.5 t-17 1.5v302q0 81 -26.5 120t-79.5 39q-32 0 -56 -13t-40 -35t-24.5 -51.5t-8.5 -62.5v-299q-6 -1 -16.5 -1.5t-16.5 -0.5q-5 0 -16 0.5t-17 1.5v315q0 77 -24.5 114t-70.5 37q-31 0 -57 -15.5t-45 -43.5t-29.5 -66.5t-10.5 -84.5v-256q-6 -1 -16.5 -1.5t-16.5 -0.5 q-5 0 -16 0.5t-17 1.5v510z" />
<glyph unicode="n" horiz-adv-x="572" d="M88 510q8 1 15.5 1.5t14.5 0.5q8 0 15 -0.5t15 -1.5q2 -18 3 -45t1 -47q10 18 26 36.5t37.5 33.5t49.5 24.5t61 9.5q88 0 128 -52.5t40 -147.5v-322q-6 -1 -16.5 -1.5t-16.5 -0.5q-5 0 -16 0.5t-17 1.5v302q0 85 -26.5 122t-79.5 37q-35 0 -66 -14t-53.5 -40.5 t-35.5 -65.5t-13 -89v-252q-6 -1 -16.5 -1.5t-16.5 -0.5q-5 0 -16 0.5t-17 1.5v510z" />
<glyph unicode="o" horiz-adv-x="574" d="M287 46q80 0 119.5 56t39.5 153t-39.5 153t-119.5 56t-119.5 -56t-39.5 -153t39.5 -153t119.5 -56zM287 -12q-57 0 -100 20.5t-71.5 56.5t-42.5 85t-14 105t14 105t42.5 85t71.5 56.5t100 20.5t99.5 -20.5t71 -56.5t43 -85t14.5 -105t-14.5 -105t-43 -85t-71 -56.5 t-99.5 -20.5z" />
<glyph unicode="p" horiz-adv-x="589" d="M88 510q6 1 15 1.5t15 0.5t15 -0.5t15 -1.5l6 -70q21 32 60.5 57t102.5 25q47 0 86 -14.5t66.5 -45.5t43 -78t15.5 -113t-18 -118.5t-52.5 -89t-85 -56t-115.5 -19.5q-24 0 -52 4t-51 12v-240q-6 -1 -17 -1.5t-16 -0.5q-6 0 -16.5 0.5t-16.5 1.5v746zM154 65 q23 -9 47.5 -13.5t65.5 -4.5q39 0 74 12.5t61 39.5t41 68.5t15 99.5q0 92 -34.5 144t-111.5 52q-24 0 -52 -8t-51.5 -27.5t-39 -51t-15.5 -79.5v-232z" />
<glyph unicode="q" horiz-adv-x="584" d="M430 3q-24 -7 -52 -11t-60 -4q-53 0 -100 12t-82 41.5t-55 78t-20 120.5q0 66 19.5 118t54.5 88.5t84.5 56t109.5 19.5q28 0 50.5 -1.5t42 -4.5t37.5 -7t37 -10v-735q-6 -1 -17 -1.5t-16 -0.5q-6 0 -16.5 0.5t-16.5 1.5v239zM430 454q-30 6 -49.5 8t-47.5 2 q-51 0 -89.5 -17t-63.5 -48t-37.5 -73t-12.5 -93q0 -49 13.5 -84t38.5 -58t58.5 -34t74.5 -11q33 0 64 5t51 12v391z" />
<glyph unicode="r" horiz-adv-x="350" d="M88 510q8 1 15.5 1.5t14.5 0.5q8 0 15 -0.5t15 -1.5q2 -18 3 -42.5t1 -44.5q20 37 56 62.5t95 25.5h11q5 0 12 -1q3 -17 3 -32q0 -16 -3 -31q-8 1 -12 1h-10q-68 0 -109 -43t-41 -143v-262q-6 -1 -16.5 -1.5t-16.5 -0.5q-5 0 -16 0.5t-17 1.5v510z" />
<glyph unicode="s" horiz-adv-x="452" d="M74 70q22 -9 57 -15.5t67 -6.5q60 0 95 26.5t35 65.5q0 27 -10.5 44.5t-28 29.5t-39.5 20l-45 15q-25 8 -49.5 18t-43.5 25.5t-30.5 37.5t-11.5 55q0 61 44.5 99t137.5 38q39 0 75.5 -7t56.5 -15q-5 -29 -14 -57q-21 7 -53.5 14t-67.5 7q-61 0 -86.5 -21.5t-25.5 -56.5 q0 -19 8.5 -32.5t23 -23t33 -16.5t39.5 -13q27 -9 54.5 -19.5t50 -27.5t37 -43t14.5 -65q0 -36 -14.5 -65.5t-40.5 -50t-62 -31.5t-79 -11q-48 0 -85.5 6t-60.5 16q6 30 19 60z" />
<glyph unicode="t" horiz-adv-x="339" d="M111 454h-87q-1 5 -1.5 13t-0.5 16t0.5 15t1.5 12h87v96l62 61h4v-157h138q1 -5 1.5 -12t0.5 -15t-0.5 -16t-1.5 -13h-138v-332q0 -25 6.5 -39.5t17 -22.5t24 -10.5t27.5 -2.5q35 0 61 9q7 -26 10 -56q-36 -11 -84 -11q-57 0 -92.5 30.5t-35.5 99.5v335z" />
<glyph unicode="u" horiz-adv-x="575" d="M84 510q6 1 17 1.5t16 0.5q6 0 16.5 -0.5t16.5 -1.5v-287q0 -54 11 -88.5t32.5 -54t52.5 -27t70 -7.5q33 0 59 3.5t46 9.5v451q6 1 17 1.5t16 0.5q6 0 16.5 -0.5t16.5 -1.5v-497q-37 -10 -82.5 -17.5t-93.5 -7.5q-47 0 -88.5 9t-72 34.5t-48.5 70.5t-18 117v291z" />
<glyph unicode="v" horiz-adv-x="521" d="M26 510q6 1 17 1.5t21 0.5q8 0 20 -0.5t18 -1.5l161 -441l164 441q6 1 16 1.5t18 0.5t18 -0.5t16 -1.5l-203 -510q-15 -3 -31 -3t-32 3z" />
<glyph unicode="w" horiz-adv-x="752" d="M33 510q6 1 15.5 1.5t19.5 0.5q8 0 19.5 -0.5t17.5 -1.5l113 -434l126 434q8 1 17.5 1.5t20.5 0.5h16q9 0 17 -2l126 -428l113 428q6 1 14.5 1.5t16.5 0.5t18 -0.5t16 -1.5l-147 -510q-18 -3 -35 -3q-19 0 -35 3l-123 422l-129 -422q-18 -3 -35 -3q-19 0 -35 3z" />
<glyph unicode="x" horiz-adv-x="490" d="M172 266l-134 244q18 3 35 3q19 0 40 -3l128 -244l-148 -266q-17 -3 -34 -3q-20 0 -39 3zM249 266l128 244q21 3 39 3q16 0 34 -3l-130 -239l150 -271q-20 -3 -39 -3q-18 0 -34 3z" />
<glyph unicode="y" horiz-adv-x="515" d="M257 -2h-19q-9 0 -20.5 0.5t-17.5 1.5l-184 510q6 1 17 1.5t21 0.5q8 0 20 -0.5t18 -1.5l169 -496l166 496q6 1 16 1.5t18 0.5t18 -0.5t16 -1.5l-224 -661q-18 -55 -51 -77t-78 -22q-21 0 -42.5 4t-35.5 8q0 31 15 56q8 -3 24 -6.5t36 -3.5q29 0 46.5 14t30.5 52z" />
<glyph unicode="z" horiz-adv-x="465" d="M31 16l297 438h-267q-1 5 -1.5 12t-0.5 15t0.5 16t1.5 13h368l4 -13l-297 -441h281q1 -5 1.5 -13t0.5 -16t-0.5 -15t-1.5 -12h-383z" />
<glyph unicode="{" horiz-adv-x="396" d="M157 109q0 36 -6 62.5t-18.5 47.5t-33 37.5t-49.5 32.5v4q29 16 49.5 32.5t33 37.5t18.5 47.5t6 62.5v77q0 102 41.5 151t144.5 49q1 -7 1.5 -14t0.5 -15t-0.5 -15t-1.5 -12q-40 0 -64 -9.5t-36.5 -30.5t-16.5 -53.5t-4 -77.5v-11q0 -51 -4 -86.5t-13.5 -60.5t-26 -42.5 t-41.5 -31.5q25 -14 41.5 -31.5t26 -42.5t13.5 -60.5t4 -86.5v-11q0 -45 4 -77.5t16.5 -53.5t36.5 -30.5t64 -9.5q1 -6 1.5 -12.5t0.5 -14.5t-0.5 -15.5t-1.5 -13.5q-103 0 -144.5 49t-41.5 151v77z" />
<glyph unicode="|" horiz-adv-x="327" d="M130 776q7 1 16.5 1.5t17.5 0.5q9 0 17.5 -0.5t15.5 -1.5v-944q-7 -1 -15.5 -1.5t-17.5 -0.5q-10 0 -19 0.5t-15 1.5v944z" />
<glyph unicode="}" horiz-adv-x="396" d="M239 32q0 -102 -41.5 -151t-144.5 -49q-1 6 -1.5 13.5t-0.5 15.5t0.5 14.5t1.5 12.5q40 0 63.5 9.5t36.5 30.5t17 53.5t4 77.5v11q0 51 4 86.5t13.5 60.5t26 42.5t41.5 31.5q-25 14 -41.5 31.5t-26 42.5t-13.5 60.5t-4 86.5v11q0 45 -4 77.5t-17 53.5t-36.5 30.5 t-63.5 9.5q-1 5 -1.5 12t-0.5 15t0.5 15t1.5 14q103 0 144.5 -49t41.5 -151v-77q0 -36 5.5 -62.5t18.5 -47.5t33.5 -37.5t49.5 -32.5v-4q-29 -16 -49.5 -32.5t-33.5 -37.5t-18.5 -47.5t-5.5 -62.5v-77z" />
<glyph unicode="~" horiz-adv-x="478" d="M24 398q10 12 25 22.5t32.5 19t36 13t35.5 4.5q23 0 45.5 -6.5t45 -14t45 -13.5t45.5 -6q20 0 41.5 8t45.5 31q13 -12 20.5 -25.5t12.5 -27.5q-25 -22 -53 -35t-66 -13q-22 0 -45 6t-45.5 13.5t-45 14t-43.5 6.5q-24 0 -48.5 -9.5t-48.5 -32.5q-23 16 -35 45z" />
<glyph unicode="&#xa1;" horiz-adv-x="283" d="M99 428q-3 21 -3 42q0 22 3 43q21 3 42 3q22 0 43 -3q3 -21 3 -42q0 -22 -3 -43q-21 -3 -42 -3q-22 0 -43 3zM174 -206q-8 -1 -16 -1.5t-16 -0.5q-10 0 -19.5 0.5t-19.5 1.5l4 514q8 1 16 1.5t16 0.5t15.5 -0.5t15.5 -1.5z" />
<glyph unicode="&#xa2;" d="M334 -10q-106 11 -160.5 78.5t-54.5 186.5q0 52 13.5 98t40.5 81.5t67.5 57.5t93.5 28v118q14 3 28 3t29 -3v-117q32 -2 59 -7t44 -10q0 -13 -3.5 -30t-7.5 -27q-20 7 -50.5 12t-65.5 5q-45 0 -78.5 -15.5t-56 -43.5t-33.5 -66t-11 -84q0 -108 51.5 -158.5t139.5 -50.5 q30 0 57.5 5t49.5 13q5 -10 9.5 -27t6.5 -28q-23 -8 -50.5 -13.5t-60.5 -7.5v-106q-12 -4 -25 -4h-4q-14 1 -28 4v108z" />
<glyph unicode="&#xa3;" d="M117 10l23 23q19 19 32 42t21 47t11.5 47.5t3.5 44.5q0 26 -4 51.5t-10 51.5h-84q-1 5 -1.5 12t-0.5 15t0.5 16t1.5 13h70q-8 31 -13 63.5t-5 67.5q0 45 12.5 84.5t38.5 69t66 46t96 16.5q51 0 84.5 -8t53.5 -16q-2 -18 -5.5 -29.5t-10.5 -28.5q-28 12 -57.5 17t-63.5 5 q-39 0 -66 -12t-44 -33t-25 -50.5t-8 -63.5q0 -33 5.5 -64.5t13.5 -63.5h211q1 -5 1.5 -13t0.5 -16t-0.5 -15t-1.5 -12h-198q5 -26 9 -51.5t4 -51.5q0 -48 -12.5 -90t-31.5 -61h282q1 -6 1.5 -15.5t0.5 -16.5q0 -8 -0.5 -16.5t-1.5 -14.5h-396z" />
<glyph unicode="&#xa4;" d="M87 352q0 36 11.5 68.5t31.5 59.5l-84 84q8 17 20.5 28t25.5 16l83 -84q26 18 57.5 28.5t66.5 10.5t67 -10.5t58 -29.5l85 85q14 -8 25.5 -19t19.5 -23l-85 -86q20 -27 31.5 -59.5t11.5 -68.5q0 -35 -11 -67t-31 -58l82 -82q-8 -14 -19 -25.5t-22 -19.5l-85 83 q-26 -20 -58.5 -30.5t-68.5 -10.5t-68.5 10.5t-58.5 30.5l-82 -81q-17 8 -28 20t-16 25l81 80q-19 26 -29.5 58t-10.5 67zM152 352q0 -32 11 -59.5t30.5 -48t46.5 -32.5t59 -12t59 12t47 32.5t31 48t11 59.5t-11 60t-31 48.5t-47 32.5t-59 12t-59 -12t-46.5 -32.5 t-30.5 -48.5t-11 -60z" />
<glyph unicode="&#xa5;" d="M268 157h-198q-4 12 -4 28q0 17 4 30h198v101h-198q-4 12 -4 28q0 17 4 30h163l-196 333q6 1 17 1.5t21 0.5q9 0 21.5 -0.5t19.5 -1.5l188 -320l185 320q8 1 17.5 1.5t18.5 0.5q10 0 21 -0.5t17 -1.5l-192 -333h165q3 -14 3 -27q0 -16 -3 -31h-199v-101h199q3 -14 3 -27 q0 -16 -3 -31h-199v-157q-7 -1 -16 -1.5t-18 -0.5q-10 0 -19.5 0.5t-15.5 1.5v157z" />
<glyph unicode="&#xa6;" horiz-adv-x="327" d="M130 776q7 1 16.5 1.5t17.5 0.5q9 0 17.5 -0.5t15.5 -1.5v-332q-7 -1 -15.5 -1.5t-17.5 -0.5q-10 0 -19 0.5t-15 1.5v332zM130 164q7 1 16.5 1.5t17.5 0.5q9 0 17.5 -0.5t15.5 -1.5v-332q-7 -1 -15.5 -1.5t-17.5 -0.5q-10 0 -19 0.5t-15 1.5v332z" />
<glyph unicode="&#xa7;" horiz-adv-x="555" d="M69 14q5 21 8 32t10 25q28 -11 64 -19.5t83 -8.5q77 0 119.5 23.5t42.5 61.5q0 18 -8.5 31t-23 23t-33 17t-38.5 13l-104 34q-37 12 -60.5 26t-36.5 29.5t-18 33.5t-5 38q0 36 15.5 64.5t36.5 52.5q-14 14 -22.5 35.5t-8.5 49.5q0 31 15.5 57.5t42.5 45.5t65 29.5 t83 10.5q52 0 87 -8t70 -19q0 -16 -4.5 -29t-12.5 -28q-28 11 -58 19.5t-76 8.5q-62 0 -102 -20.5t-40 -63.5q0 -20 7 -33.5t19.5 -22.5t29.5 -15.5t37 -12.5l127 -39q45 -14 75 -40t30 -76q0 -40 -16 -70t-38 -54q14 -15 23.5 -36t9.5 -49q0 -33 -16 -59.5t-46 -45.5 t-72.5 -29t-96.5 -10q-48 0 -89.5 7.5t-74.5 20.5zM339 261q7 -3 14.5 -5.5t19.5 -7.5q6 5 13.5 13.5t14.5 19t12 23.5t5 28q0 26 -20.5 42t-58.5 28l-124 40l-22 8q-11 4 -19 8q-11 -11 -25 -31.5t-14 -46.5q0 -28 18.5 -45.5t56.5 -31.5z" />
<glyph unicode="&#xa8;" horiz-adv-x="500" d="M114 613q-3 21 -3 42q0 22 3 43q19 3 40 3t41 -3q3 -21 3 -42q0 -22 -3 -43q-20 -3 -40 -3q-22 0 -41 3zM305 613q-3 21 -3 42q0 22 3 43q19 3 40 3t41 -3q3 -21 3 -42q0 -22 -3 -43q-20 -3 -40 -3q-22 0 -41 3z" />
<glyph unicode="&#xa9;" horiz-adv-x="864" d="M531 220q8 -14 12 -24.5t9 -25.5q-20 -10 -48.5 -17t-57.5 -7q-45 0 -81.5 15t-62 43t-39 66.5t-13.5 85.5q0 48 14 88t39.5 69t61.5 45t80 16q37 0 58 -4t41 -10q-2 -17 -4.5 -28t-9.5 -25q-21 6 -40 8.5t-42 2.5q-68 0 -101 -44t-33 -118q0 -75 36 -115t101 -40 q21 0 42 5t38 14zM432 46q71 0 127 24.5t95 67t60 99.5t21 122t-21 122t-60 99.5t-95 67t-127 24.5t-127 -24.5t-95 -67t-60 -99.5t-21 -122t21 -122t60 -99.5t95 -67t127 -24.5zM432 -13q-83 0 -151.5 28.5t-117 78t-75.5 117.5t-27 148q0 79 27 147.5t75.5 118t117 78 t151.5 28.5t151.5 -28t117 -78t75.5 -118t27 -148t-27 -148t-75.5 -117.5t-117 -78t-151.5 -28.5z" />
<glyph unicode="&#xaa;" horiz-adv-x="500" d="M322 494q-14 2 -34 3.5t-37 1.5q-61 0 -95 -21t-34 -59q0 -24 10 -39t26 -22.5t36 -10t39 -2.5q25 0 46.5 1.5t42.5 5.5v142zM322 568q0 50 -26 72t-78 22q-30 0 -56.5 -4.5t-49.5 -11.5q-5 8 -7.5 25.5t-2.5 29.5q20 6 52.5 10.5t67.5 4.5q81 0 121 -34t40 -107v-268 q-29 -5 -71.5 -10.5t-80.5 -5.5q-86 0 -127.5 30t-41.5 96t49 101.5t127 35.5q25 0 47 -1.5t37 -3.5v19z" />
<glyph unicode="&#xab;" horiz-adv-x="601" d="M55 267l175 221q18 3 37 3t39 -3l-171 -219l171 -223q-18 -3 -37 -3q-20 0 -39 3zM297 267l175 221q18 3 37 3t39 -3l-171 -219l171 -223q-18 -3 -37 -3q-20 0 -39 3z" />
<glyph unicode="&#xac;" d="M498 364v-272q-5 -1 -15 -1.5t-18 -0.5t-19 0.5t-16 1.5v204h-342q-1 5 -1.5 15t-0.5 18t0.5 19t1.5 16h410z" />
<glyph unicode="&#xad;" horiz-adv-x="353" d="M308 318q1 -5 1.5 -15.5t0.5 -18.5t-0.5 -18t-1.5 -15h-263q-1 5 -1.5 15t-0.5 18t0.5 18.5t1.5 15.5h263z" />
<glyph unicode="&#xae;" horiz-adv-x="864" d="M317 558q23 3 46.5 4.5t51.5 1.5q27 0 54 -5.5t49.5 -19t36.5 -36t14 -57.5q0 -23 -7.5 -41t-18.5 -32t-25 -24t-27 -16l117 -160q-14 -2 -22 -2h-15h-16q-7 0 -14 1l-132 180l23 9q12 5 25.5 12t25.5 17t19.5 23t7.5 30q0 34 -26.5 51t-63.5 17q-22 0 -44 -3v-336 q-5 -1 -12 -1.5t-18 -0.5t-17.5 0.5t-11.5 1.5v386zM432 46q71 0 127 24.5t95 67t60 99.5t21 122t-21 122t-60 99.5t-95 67t-127 24.5t-127 -24.5t-95 -67t-60 -99.5t-21 -122t21 -122t60 -99.5t95 -67t127 -24.5zM432 -13q-83 0 -151.5 28.5t-117 78t-75.5 117.5t-27 148 q0 79 27 147.5t75.5 118t117 78t151.5 28.5t151.5 -28t117 -78t75.5 -118t27 -148t-27 -148t-75.5 -117.5t-117 -78t-151.5 -28.5z" />
<glyph unicode="&#xaf;" horiz-adv-x="500" d="M387 685q1 -5 1.5 -13.5t0.5 -14.5t-0.5 -14.5t-1.5 -12.5h-274q-1 4 -1.5 12.5t-0.5 14.5t0.5 14.5t1.5 13.5h274z" />
<glyph unicode="&#xb0;" horiz-adv-x="364" d="M42 584q0 30 11.5 56t31 45t45.5 30t55 11t55 -11t45.5 -30t31 -45t11.5 -56t-11.5 -56t-31 -45t-45.5 -30t-55 -11t-55 11t-45.5 30t-31 45t-11.5 56zM101 584q0 -38 23.5 -63t60.5 -25t60.5 25t23.5 63t-23.5 63t-60.5 25t-60.5 -25t-23.5 -63z" />
<glyph unicode="&#xb1;" d="M268 318h-172q-2 8 -2 16v17v16q0 8 2 16h172v185q8 1 16 1.5t16 0.5t16 -0.5t17 -1.5v-185h172q1 -8 1.5 -16t0.5 -16t-0.5 -16.5t-1.5 -16.5h-172v-185q-9 -2 -17 -2h-16h-16q-8 0 -16 2v185zM513 70q1 -5 1.5 -16t0.5 -19t-0.5 -18t-1.5 -15h-426q-1 5 -1.5 15 t-0.5 18t0.5 19t1.5 16h426z" />
<glyph unicode="&#xb2;" horiz-adv-x="450" d="M204 362h174v-55h-298l-3 8l124 125q39 39 62.5 78t23.5 67q0 35 -24.5 50t-69.5 15q-29 0 -49 -5t-37 -10q-3 6 -6.5 21.5t-6.5 32.5q29 11 54 14.5t54 3.5q69 0 109.5 -30t40.5 -87q0 -44 -22.5 -85.5t-68.5 -86.5z" />
<glyph unicode="&#xb3;" horiz-adv-x="450" d="M355 707l5 -10l-101 -148q31 -3 53 -14.5t36 -28t20.5 -35.5t6.5 -36q0 -33 -13.5 -59t-37.5 -44t-56.5 -27.5t-71.5 -9.5q-33 0 -56.5 3.5t-54.5 11.5l15 54q49 -15 93 -15q23 0 44 4.5t36.5 15t24.5 26t9 38.5q0 19 -8.5 33.5t-22 23.5t-31.5 13.5t-37 4.5h-18 q-7 0 -16 -2l-4 6l95 143h-153v52h243z" />
<glyph unicode="&#xb4;" horiz-adv-x="500" d="M220 593q-18 -3 -41 -3q-15 0 -33 3l117 130q11 2 23 2h22q12 0 24 -0.5t23 -1.5z" />
<glyph unicode="&#xb5;" horiz-adv-x="608" d="M88 510q6 1 17 1.5t16 0.5q6 0 16.5 -0.5t16.5 -1.5v-268q0 -92 32.5 -143.5t109.5 -51.5q24 0 52 8t51.5 27.5t39 51t15.5 79.5v297q6 1 17 1.5t16 0.5q6 0 16.5 -0.5t16.5 -1.5v-510q-6 -1 -15 -1.5t-15 -0.5h-14q-10 0 -16 2q-4 33 -6 70q-21 -32 -60.5 -57 t-102.5 -25q-91 0 -137 67v-291q-6 -1 -17 -1.5t-16 -0.5q-6 0 -16.5 0.5t-16.5 1.5v746z" />
<glyph unicode="&#xb6;" horiz-adv-x="550" d="M284 313h-13q-49 0 -89.5 12t-70 36t-45.5 60.5t-16 86.5q0 59 15.5 100.5t50.5 67.5t91.5 37.5t138.5 11.5v-731q-22 0 -35.5 1.5t-26.5 4.5v313zM430 725q22 0 35.5 -1.5t26.5 -4.5v-719q-13 -3 -26.5 -4.5t-35.5 -1.5v731z" />
<glyph unicode="&#xb7;" horiz-adv-x="205" d="M60 234q-3 21 -3 42q0 22 3 43q21 3 42 3q22 0 43 -3q3 -21 3 -42q0 -22 -3 -43q-21 -3 -42 -3q-22 0 -43 3z" />
<glyph unicode="&#xb8;" horiz-adv-x="500" d="M237 -61q5 1 9 1h10q51 0 75.5 -24t24.5 -61q0 -48 -37 -72t-100 -24q-13 0 -34.5 2.5t-38.5 10.5q0 13 2 25.5t9 23.5q14 -5 30 -8.5t32 -3.5q34 0 54 11.5t20 35.5q0 22 -19.5 31t-51.5 9q-14 0 -27 -2l-25 -4l-5 4l49 130h58z" />
<glyph unicode="&#xb9;" horiz-adv-x="450" d="M113 584q-10 9 -15.5 22.5t-8.5 25.5l184 79h12v-350h99q1 -7 1.5 -13.5t0.5 -13.5t-0.5 -13.5t-1.5 -13.5h-270q-3 13 -3 27q0 13 3 27h106v267z" />
<glyph unicode="&#xba;" horiz-adv-x="500" d="M251 354q58 0 86.5 41t28.5 114q0 71 -28.5 112t-86.5 41q-59 0 -87.5 -41t-28.5 -112q0 -73 28.5 -114t87.5 -41zM251 295q-45 0 -79 16.5t-57 45t-35 67.5t-12 85q0 44 12 82.5t35 67t57 44.5t79 16t79 -16t57 -44.5t34.5 -67t11.5 -82.5q0 -46 -11.5 -85t-34.5 -67.5 t-57 -45t-79 -16.5z" />
<glyph unicode="&#xbb;" d="M304 267l-175 -221q-18 -3 -37 -3q-20 0 -39 3l171 219l-171 223q18 3 37 3t39 -3zM545 267l-175 -221q-18 -3 -37 -3q-20 0 -39 3l171 219l-171 223q18 3 37 3t39 -3z" />
<glyph unicode="&#xbc;" horiz-adv-x="1050" d="M90 584q-10 9 -15.5 22.5t-8.5 25.5l184 79h12v-350h99q1 -7 1.5 -13.5t0.5 -13.5t-0.5 -13.5t-1.5 -13.5h-270q-3 13 -3 27q0 13 3 27h106v267zM333 0q-10 -2 -19 -2h-18h-18q-10 0 -18 2l484 707q8 1 16.5 1.5t16.5 0.5q10 0 19.5 -0.5t19.5 -1.5zM721 140h127v86 q15 3 29 3q13 0 30 -3v-86h52q3 -11 3 -28q0 -8 -0.5 -15.5t-2.5 -12.5h-52v-82q-8 -1 -14 -1.5t-12 -0.5q-8 0 -16 0.5t-17 1.5v82h-212l-6 8l167 324q29 -5 57 -18z" />
<glyph unicode="&#xbd;" horiz-adv-x="1050" d="M90 584q-10 9 -15.5 22.5t-8.5 25.5l184 79h12v-350h99q1 -7 1.5 -13.5t0.5 -13.5t-0.5 -13.5t-1.5 -13.5h-270q-3 13 -3 27q0 13 3 27h106v267zM786 57h174v-55h-298l-3 8l124 125q39 39 62.5 78t23.5 67q0 35 -24.5 50t-69.5 15q-29 0 -49 -5t-37 -10q-3 6 -6.5 21.5 t-6.5 32.5q29 11 54 14.5t54 3.5q69 0 109.5 -30t40.5 -87q0 -44 -22.5 -85.5t-68.5 -86.5zM315 0q-10 -2 -19 -2h-18h-18q-10 0 -18 2l484 707q8 1 16.5 1.5t16.5 0.5q10 0 19.5 -0.5t19.5 -1.5z" />
<glyph unicode="&#xbe;" horiz-adv-x="1050" d="M352 707l5 -10l-101 -148q31 -3 53 -14.5t36 -28t20.5 -35.5t6.5 -36q0 -33 -13.5 -59t-37.5 -44t-56.5 -27.5t-71.5 -9.5q-33 0 -56.5 3.5t-54.5 11.5l15 54q49 -15 93 -15q23 0 44 4.5t36.5 15t24.5 26t9 38.5q0 19 -8.5 33.5t-22 23.5t-31.5 13.5t-37 4.5h-18 q-7 0 -16 -2l-4 6l95 143h-153v52h243zM735 149h127v86q15 3 29 3q13 0 30 -3v-86h52q3 -11 3 -28q0 -8 -0.5 -15.5t-2.5 -12.5h-52v-82q-8 -1 -14 -1.5t-12 -0.5q-8 0 -16 0.5t-17 1.5v82h-212l-6 8l167 324q29 -5 57 -18zM342 0q-10 -2 -19 -2h-18h-18q-10 0 -18 2 l484 707q8 1 16.5 1.5t16.5 0.5q10 0 19.5 -0.5t19.5 -1.5z" />
<glyph unicode="&#xbf;" horiz-adv-x="485" d="M238 428q-3 21 -3 42q0 22 3 43q21 3 42 3q22 0 43 -3q3 -21 3 -42q0 -22 -3 -43q-21 -3 -42 -3q-22 0 -43 3zM316 155l-34 -11q-26 -8 -51 -20.5t-45.5 -30.5t-33 -43t-12.5 -58q0 -68 48 -102.5t125 -34.5q47 0 75 7t55 16q6 -14 10 -28l9 -32q-44 -14 -79.5 -19.5 t-79.5 -5.5q-117 0 -177 53t-60 144q0 51 22 88.5t52 62t60.5 38.5t47.5 19v112q9 1 18 1.5t17 0.5t17 -0.5t16 -1.5v-155z" />
<glyph unicode="&#xc0;" horiz-adv-x="602" d="M260 719q7 1 19 1.5t22 0.5q11 0 22.5 -0.5t18.5 -1.5l240 -719q-6 -1 -17 -1.5t-21 -0.5q-9 0 -19 0.5t-17 1.5l-60 183h-296l-57 -183q-8 -1 -18.5 -1.5t-19.5 -0.5q-10 0 -20.5 0.5t-16.5 1.5zM428 247l-129 400l-127 -400h256zM160 889q22 3 49 3q24 0 47 -3 l111 -111q-18 -3 -35 -3q-25 0 -43 3z" />
<glyph unicode="&#xc1;" horiz-adv-x="602" d="M260 719q7 1 19 1.5t22 0.5q11 0 22.5 -0.5t18.5 -1.5l240 -719q-6 -1 -17 -1.5t-21 -0.5q-9 0 -19 0.5t-17 1.5l-60 183h-296l-57 -183q-8 -1 -18.5 -1.5t-19.5 -0.5q-10 0 -20.5 0.5t-16.5 1.5zM428 247l-129 400l-127 -400h256zM302 778q-18 -3 -43 -3q-17 0 -35 3 l111 111q22 3 47 3q26 0 49 -3z" />
<glyph unicode="&#xc2;" horiz-adv-x="602" d="M260 719q7 1 19 1.5t22 0.5q11 0 22.5 -0.5t18.5 -1.5l240 -719q-6 -1 -17 -1.5t-21 -0.5q-9 0 -19 0.5t-17 1.5l-60 183h-296l-57 -183q-8 -1 -18.5 -1.5t-19.5 -0.5q-10 0 -20.5 0.5t-16.5 1.5zM428 247l-129 400l-127 -400h256zM461 778q-9 -2 -19.5 -2.5t-18.5 -0.5 t-19.5 0.5t-23.5 2.5l-79 70l-80 -70q-24 -3 -43 -3q-8 0 -19 0.5t-21 2.5l126 111q18 3 37 3q17 0 37 -3z" />
<glyph unicode="&#xc3;" horiz-adv-x="602" d="M260 719q7 1 19 1.5t22 0.5q11 0 22.5 -0.5t18.5 -1.5l240 -719q-6 -1 -17 -1.5t-21 -0.5q-9 0 -19 0.5t-17 1.5l-60 183h-296l-57 -183q-8 -1 -18.5 -1.5t-19.5 -0.5q-10 0 -20.5 0.5t-16.5 1.5zM428 247l-129 400l-127 -400h256zM223 845q-23 0 -37 -9t-31 -24 q-17 20 -25 44q15 16 39 31.5t53 15.5q22 0 44.5 -9t44 -19.5t42 -19t40.5 -8.5t33.5 8.5t31.5 25.5q8 -11 14 -22.5t11 -23.5q-16 -15 -39.5 -29.5t-53.5 -14.5q-22 0 -43.5 8.5t-42.5 18.5l-42 18q-20 9 -39 9z" />
<glyph unicode="&#xc4;" horiz-adv-x="602" d="M260 719q7 1 19 1.5t22 0.5q11 0 22.5 -0.5t18.5 -1.5l240 -719q-6 -1 -17 -1.5t-21 -0.5q-9 0 -19 0.5t-17 1.5l-60 183h-296l-57 -183q-8 -1 -18.5 -1.5t-19.5 -0.5q-10 0 -20.5 0.5t-16.5 1.5zM428 247l-129 400l-127 -400h256zM153 788q-3 22 -3 44t3 45q22 3 43 3 q24 0 44 -3q3 -23 3 -44q0 -23 -3 -45q-20 -3 -43 -3q-22 0 -44 3zM362 788q-3 22 -3 44t3 45q19 3 43 3q21 0 44 -3q3 -23 3 -44q0 -23 -3 -45q-23 -3 -43 -3q-25 0 -44 3z" />
<glyph unicode="&#xc5;" horiz-adv-x="602" d="M300 936q25 0 46 -9t36 -24t23.5 -35.5t8.5 -44.5q0 -37 -19.5 -65.5t-52.5 -40.5l240 -717q-6 -1 -17 -1.5t-21 -0.5q-9 0 -19 0.5t-17 1.5l-60 183h-296l-57 -183q-8 -1 -18.5 -1.5t-19.5 -0.5q-10 0 -20.5 0.5t-16.5 1.5l239 716q-34 12 -53.5 40.5t-19.5 66.5 q0 24 8 44.5t23 35.5t36 24t47 9zM428 247l-129 400l-127 -400h256zM300 890q-29 0 -44 -19t-15 -48t15 -48t44 -19t44 19t15 48t-15 48t-44 19z" />
<glyph unicode="&#xc6;" horiz-adv-x="896" d="M64 0q-23 -3 -42 -3q-21 0 -39 3l437 719h422q1 -6 1.5 -14.5t0.5 -16.5q0 -7 -0.5 -16.5t-1.5 -15.5h-316v-263h254q1 -6 1.5 -14.5t0.5 -16.5q0 -7 -0.5 -16.5t-1.5 -15.5h-254v-267h325q1 -6 1.5 -14.5t0.5 -16.5q0 -7 -0.5 -16.5t-1.5 -15.5h-394v184h-285zM457 661 h-4l-244 -414h248v414z" />
<glyph unicode="&#xc7;" horiz-adv-x="618" d="M549 82q8 -15 14 -29t9 -29q-34 -17 -81 -26.5t-100 -9.5l-19 -48q5 1 9 1h9q51 0 76 -24.5t25 -61.5q0 -48 -37.5 -72t-100.5 -24q-13 0 -34.5 2.5t-38.5 10.5q0 12 2 25.5t9 24.5q14 -5 30 -8.5t32 -3.5q34 0 54 11t20 35q0 22 -19.5 31t-51.5 9q-14 0 -27 -2l-25 -4 l-5 4l37 98q-62 9 -112 36.5t-85.5 73t-55 108t-19.5 142.5q0 90 23.5 160.5t66 119t103 74t135.5 25.5q63 0 105 -9t61 -15q-2 -18 -5.5 -30t-10.5 -29l-26 8q-14 4 -31 7t-39.5 5t-52.5 2q-59 0 -106 -21.5t-80 -62.5t-51 -100t-18 -134q0 -77 20 -134t55.5 -94.5 t83 -55.5t102.5 -18q47 0 85.5 9t64.5 23z" />
<glyph unicode="&#xc8;" horiz-adv-x="540" d="M101 719h385q1 -6 1.5 -14.5t0.5 -16.5q0 -7 -0.5 -16.5t-1.5 -15.5h-316v-243h254q1 -6 1.5 -14.5t0.5 -16.5q0 -7 -0.5 -16.5t-1.5 -15.5h-254v-287h325q1 -6 1.5 -14.5t0.5 -16.5q0 -7 -0.5 -16.5t-1.5 -15.5h-394v719zM153 889q22 3 49 3q24 0 47 -3l111 -111 q-18 -3 -35 -3q-25 0 -43 3z" />
<glyph unicode="&#xc9;" horiz-adv-x="540" d="M101 719h385q1 -6 1.5 -14.5t0.5 -16.5q0 -7 -0.5 -16.5t-1.5 -15.5h-316v-243h254q1 -6 1.5 -14.5t0.5 -16.5q0 -7 -0.5 -16.5t-1.5 -15.5h-254v-287h325q1 -6 1.5 -14.5t0.5 -16.5q0 -7 -0.5 -16.5t-1.5 -15.5h-394v719zM298 778q-18 -3 -43 -3q-17 0 -35 3l111 111 q22 3 47 3q26 0 49 -3z" />
<glyph unicode="&#xca;" horiz-adv-x="540" d="M101 719h385q1 -6 1.5 -14.5t0.5 -16.5q0 -7 -0.5 -16.5t-1.5 -15.5h-316v-243h254q1 -6 1.5 -14.5t0.5 -16.5q0 -7 -0.5 -16.5t-1.5 -15.5h-254v-287h325q1 -6 1.5 -14.5t0.5 -16.5q0 -7 -0.5 -16.5t-1.5 -15.5h-394v719zM452 778q-9 -2 -19.5 -2.5t-18.5 -0.5 t-19.5 0.5t-23.5 2.5l-79 70l-80 -70q-24 -3 -43 -3q-8 0 -19 0.5t-21 2.5l126 111q18 3 37 3q17 0 37 -3z" />
<glyph unicode="&#xcb;" horiz-adv-x="540" d="M101 719h385q1 -6 1.5 -14.5t0.5 -16.5q0 -7 -0.5 -16.5t-1.5 -15.5h-316v-243h254q1 -6 1.5 -14.5t0.5 -16.5q0 -7 -0.5 -16.5t-1.5 -15.5h-254v-287h325q1 -6 1.5 -14.5t0.5 -16.5q0 -7 -0.5 -16.5t-1.5 -15.5h-394v719zM145 788q-3 22 -3 44t3 45q22 3 43 3 q24 0 44 -3q3 -23 3 -44q0 -23 -3 -45q-20 -3 -43 -3q-22 0 -44 3zM354 788q-3 22 -3 44t3 45q19 3 43 3q21 0 44 -3q3 -23 3 -44q0 -23 -3 -45q-23 -3 -43 -3q-25 0 -44 3z" />
<glyph unicode="&#xcc;" horiz-adv-x="271" d="M101 719q7 1 17 1.5t18 0.5q9 0 18 -0.5t16 -1.5v-719q-7 -1 -16 -1.5t-18 -0.5q-10 0 -19.5 0.5t-15.5 1.5v719zM3 889q22 3 49 3q24 0 47 -3l111 -111q-18 -3 -35 -3q-25 0 -43 3z" />
<glyph unicode="&#xcd;" horiz-adv-x="271" d="M101 719q7 1 17 1.5t18 0.5q9 0 18 -0.5t16 -1.5v-719q-7 -1 -16 -1.5t-18 -0.5q-10 0 -19.5 0.5t-15.5 1.5v719zM142 778q-18 -3 -43 -3q-17 0 -35 3l111 111q22 3 47 3q26 0 49 -3z" />
<glyph unicode="&#xce;" horiz-adv-x="271" d="M101 719q7 1 17 1.5t18 0.5q9 0 18 -0.5t16 -1.5v-719q-7 -1 -16 -1.5t-18 -0.5q-10 0 -19.5 0.5t-15.5 1.5v719zM298 778q-9 -2 -19.5 -2.5t-18.5 -0.5t-19.5 0.5t-23.5 2.5l-79 70l-80 -70q-24 -3 -43 -3q-8 0 -19 0.5t-21 2.5l126 111q18 3 37 3q17 0 37 -3z" />
<glyph unicode="&#xcf;" horiz-adv-x="271" d="M101 719q7 1 17 1.5t18 0.5q9 0 18 -0.5t16 -1.5v-719q-7 -1 -16 -1.5t-18 -0.5q-10 0 -19.5 0.5t-15.5 1.5v719zM-11 788q-3 22 -3 44t3 45q22 3 43 3q24 0 44 -3q3 -23 3 -44q0 -23 -3 -45q-20 -3 -43 -3q-22 0 -44 3zM198 788q-3 22 -3 44t3 45q19 3 43 3q21 0 44 -3 q3 -23 3 -44q0 -23 -3 -45q-23 -3 -43 -3q-25 0 -44 3z" />
<glyph unicode="&#xd0;" horiz-adv-x="714" d="M116 390v329q14 2 34.5 4t43.5 3.5t46 2.5t42 1q94 0 163.5 -25.5t115 -73t67.5 -116t22 -154.5q0 -373 -368 -373q-21 0 -45 1t-46.5 2.5t-42 4t-32.5 4.5v335h-93q-1 4 -1.5 12.5t-0.5 14.5t0.5 14.5t1.5 13.5h93zM185 390h179q1 -5 1.5 -13.5t0.5 -14.5t-0.5 -14.5 t-1.5 -12.5h-179v-275q18 -2 42.5 -4t50.5 -2q69 0 124.5 15t94.5 51t60 95.5t21 148.5q0 155 -79.5 227.5t-220.5 72.5q-23 0 -49.5 -1t-43.5 -4v-269z" />
<glyph unicode="&#xd1;" horiz-adv-x="688" d="M101 719q7 1 18.5 1.5t19.5 0.5t19 -0.5t18 -1.5l344 -602v602q7 1 15.5 1.5t17.5 0.5q8 0 17.5 -0.5t16.5 -1.5v-719q-6 -1 -17.5 -1.5t-20.5 -0.5q-8 0 -19 0.5t-18 1.5l-344 597v-597q-7 -1 -15.5 -1.5t-17.5 -0.5q-10 0 -19 0.5t-15 1.5v719zM261 845q-23 0 -37 -9 t-31 -24q-17 20 -25 44q15 16 39 31.5t53 15.5q22 0 44.5 -9t44 -19.5t42 -19t40.5 -8.5t33.5 8.5t31.5 25.5q8 -11 14 -22.5t11 -23.5q-16 -15 -39.5 -29.5t-53.5 -14.5q-22 0 -43.5 8.5t-42.5 18.5l-42 18q-20 9 -39 9z" />
<glyph unicode="&#xd2;" horiz-adv-x="722" d="M361 -12q-75 0 -131 27.5t-92.5 77t-55 118t-18.5 149.5t18.5 149t55 117.5t92.5 77t131 27.5t131 -27.5t92.5 -77t55 -117.5t18.5 -149t-18.5 -149.5t-55 -118t-92.5 -77t-131 -27.5zM361 51q58 0 100 22.5t70 63.5t41.5 98t13.5 125t-13.5 125t-41.5 97.5t-70 63 t-100 22.5t-100.5 -22.5t-70 -63t-41 -97.5t-13.5 -125t13.5 -125t41 -98t70 -63.5t100.5 -22.5zM216 889q22 3 49 3q24 0 47 -3l111 -111q-18 -3 -35 -3q-25 0 -43 3z" />
<glyph unicode="&#xd3;" horiz-adv-x="722" d="M361 -12q-75 0 -131 27.5t-92.5 77t-55 118t-18.5 149.5t18.5 149t55 117.5t92.5 77t131 27.5t131 -27.5t92.5 -77t55 -117.5t18.5 -149t-18.5 -149.5t-55 -118t-92.5 -77t-131 -27.5zM361 51q58 0 100 22.5t70 63.5t41.5 98t13.5 125t-13.5 125t-41.5 97.5t-70 63 t-100 22.5t-100.5 -22.5t-70 -63t-41 -97.5t-13.5 -125t13.5 -125t41 -98t70 -63.5t100.5 -22.5zM356 778q-18 -3 -43 -3q-17 0 -35 3l111 111q22 3 47 3q26 0 49 -3z" />
<glyph unicode="&#xd4;" horiz-adv-x="722" d="M361 -12q-75 0 -131 27.5t-92.5 77t-55 118t-18.5 149.5t18.5 149t55 117.5t92.5 77t131 27.5t131 -27.5t92.5 -77t55 -117.5t18.5 -149t-18.5 -149.5t-55 -118t-92.5 -77t-131 -27.5zM361 51q58 0 100 22.5t70 63.5t41.5 98t13.5 125t-13.5 125t-41.5 97.5t-70 63 t-100 22.5t-100.5 -22.5t-70 -63t-41 -97.5t-13.5 -125t13.5 -125t41 -98t70 -63.5t100.5 -22.5zM522 778q-9 -2 -19.5 -2.5t-18.5 -0.5t-19.5 0.5t-23.5 2.5l-79 70l-80 -70q-24 -3 -43 -3q-8 0 -19 0.5t-21 2.5l126 111q18 3 37 3q17 0 37 -3z" />
<glyph unicode="&#xd5;" horiz-adv-x="722" d="M361 -12q-75 0 -131 27.5t-92.5 77t-55 118t-18.5 149.5t18.5 149t55 117.5t92.5 77t131 27.5t131 -27.5t92.5 -77t55 -117.5t18.5 -149t-18.5 -149.5t-55 -118t-92.5 -77t-131 -27.5zM361 51q58 0 100 22.5t70 63.5t41.5 98t13.5 125t-13.5 125t-41.5 97.5t-70 63 t-100 22.5t-100.5 -22.5t-70 -63t-41 -97.5t-13.5 -125t13.5 -125t41 -98t70 -63.5t100.5 -22.5zM278 845q-23 0 -37 -9t-31 -24q-17 20 -25 44q15 16 39 31.5t53 15.5q22 0 44.5 -9t44 -19.5t42 -19t40.5 -8.5t33.5 8.5t31.5 25.5q8 -11 14 -22.5t11 -23.5 q-16 -15 -39.5 -29.5t-53.5 -14.5q-22 0 -43.5 8.5t-42.5 18.5l-42 18q-20 9 -39 9z" />
<glyph unicode="&#xd6;" horiz-adv-x="722" d="M361 -12q-75 0 -131 27.5t-92.5 77t-55 118t-18.5 149.5t18.5 149t55 117.5t92.5 77t131 27.5t131 -27.5t92.5 -77t55 -117.5t18.5 -149t-18.5 -149.5t-55 -118t-92.5 -77t-131 -27.5zM361 51q58 0 100 22.5t70 63.5t41.5 98t13.5 125t-13.5 125t-41.5 97.5t-70 63 t-100 22.5t-100.5 -22.5t-70 -63t-41 -97.5t-13.5 -125t13.5 -125t41 -98t70 -63.5t100.5 -22.5zM213 788q-3 22 -3 44t3 45q22 3 43 3q24 0 44 -3q3 -23 3 -44q0 -23 -3 -45q-20 -3 -43 -3q-22 0 -44 3zM422 788q-3 22 -3 44t3 45q19 3 43 3q21 0 44 -3q3 -23 3 -44 q0 -23 -3 -45q-23 -3 -43 -3q-25 0 -44 3z" />
<glyph unicode="&#xd7;" d="M254 361l-128 129q19 25 46 46l128 -129l129 128q27 -21 46 -46l-128 -128l128 -128q-21 -28 -46 -46l-128 128l-130 -129q-25 19 -46 46z" />
<glyph unicode="&#xd8;" horiz-adv-x="722" d="M133 98q-35 50 -52 116.5t-17 145.5q0 81 18.5 149t55 117.5t92.5 77t131 27.5q58 0 104.5 -17t81.5 -48l39 53q18 3 35 3t34 -3l-69 -95q36 -49 54 -116t18 -148t-18.5 -149.5t-55 -118t-92.5 -77t-131 -27.5q-60 0 -107 17.5t-83 49.5l-40 -55q-17 -3 -34 -3t-35 3z M212 111q27 -29 64 -44.5t85 -15.5q58 0 100 22.5t70 63.5t41.5 98t13.5 125q0 61 -10.5 113t-33.5 91zM507 611q-27 27 -63 42t-83 15q-58 0 -100.5 -22.5t-70 -63t-41 -97.5t-13.5 -125q0 -60 10 -111t31 -90z" />
<glyph unicode="&#xd9;" horiz-adv-x="676" d="M93 719q7 1 17 1.5t18 0.5q9 0 18 -0.5t16 -1.5v-434q0 -63 10.5 -106.5t32 -71.5t54.5 -40.5t79 -12.5q91 0 133.5 53t42.5 178v434q7 1 16 1.5t18 0.5q8 0 18 -0.5t17 -1.5v-443q0 -144 -59 -216t-186 -72t-186 72t-59 216v443zM199 889q22 3 49 3q24 0 47 -3l111 -111 q-18 -3 -35 -3q-25 0 -43 3z" />
<glyph unicode="&#xda;" horiz-adv-x="676" d="M93 719q7 1 17 1.5t18 0.5q9 0 18 -0.5t16 -1.5v-434q0 -63 10.5 -106.5t32 -71.5t54.5 -40.5t79 -12.5q91 0 133.5 53t42.5 178v434q7 1 16 1.5t18 0.5q8 0 18 -0.5t17 -1.5v-443q0 -144 -59 -216t-186 -72t-186 72t-59 216v443zM357 778q-18 -3 -43 -3q-17 0 -35 3 l111 111q22 3 47 3q26 0 49 -3z" />
<glyph unicode="&#xdb;" horiz-adv-x="676" d="M93 719q7 1 17 1.5t18 0.5q9 0 18 -0.5t16 -1.5v-434q0 -63 10.5 -106.5t32 -71.5t54.5 -40.5t79 -12.5q91 0 133.5 53t42.5 178v434q7 1 16 1.5t18 0.5q8 0 18 -0.5t17 -1.5v-443q0 -144 -59 -216t-186 -72t-186 72t-59 216v443zM499 778q-9 -2 -19.5 -2.5t-18.5 -0.5 t-19.5 0.5t-23.5 2.5l-79 70l-80 -70q-24 -3 -43 -3q-8 0 -19 0.5t-21 2.5l126 111q18 3 37 3q17 0 37 -3z" />
<glyph unicode="&#xdc;" horiz-adv-x="676" d="M93 719q7 1 17 1.5t18 0.5q9 0 18 -0.5t16 -1.5v-434q0 -63 10.5 -106.5t32 -71.5t54.5 -40.5t79 -12.5q91 0 133.5 53t42.5 178v434q7 1 16 1.5t18 0.5q8 0 18 -0.5t17 -1.5v-443q0 -144 -59 -216t-186 -72t-186 72t-59 216v443zM190 788q-3 22 -3 44t3 45q22 3 43 3 q24 0 44 -3q3 -23 3 -44q0 -23 -3 -45q-20 -3 -43 -3q-22 0 -44 3zM399 788q-3 22 -3 44t3 45q19 3 43 3q21 0 44 -3q3 -23 3 -44q0 -23 -3 -45q-23 -3 -43 -3q-25 0 -44 3z" />
<glyph unicode="&#xdd;" horiz-adv-x="574" d="M255 267l-231 452q6 1 17 1.5t21 0.5q9 0 21.5 -0.5t19.5 -1.5l188 -380l185 380q8 1 17.5 1.5t18.5 0.5q10 0 21 -0.5t17 -1.5l-226 -452v-267q-7 -1 -16 -1.5t-18 -0.5q-10 0 -19.5 0.5t-15.5 1.5v267zM311 778q-18 -3 -43 -3q-17 0 -35 3l111 111q22 3 47 3 q26 0 49 -3z" />
<glyph unicode="&#xde;" horiz-adv-x="575" d="M170 606q22 2 39 3t40 1q53 0 101.5 -13t85 -41t58 -73t21.5 -108t-21.5 -107.5t-58 -72.5t-85 -41t-101.5 -13q-23 0 -40 1t-39 3v-145q-7 -1 -16 -1.5t-18 -0.5q-10 0 -19.5 0.5t-15.5 1.5v719q7 1 16 1.5t18 0.5q10 0 19.5 -0.5t15.5 -1.5v-113zM244 205q36 0 71 6 t63.5 24.5t46 52t17.5 88.5q0 54 -17.5 87.5t-46 52t-63.5 24.5t-71 6q-14 0 -23.5 -0.5t-17 -1t-15.5 -1.5t-18 -2v-332q10 -1 18 -1l14 -2q8 0 17.5 -0.5t24.5 -0.5z" />
<glyph unicode="&#xdf;" horiz-adv-x="547" d="M88 502q0 55 8 99.5t28 75.5t54 48t87 17q81 0 123.5 -40.5t42.5 -109.5q0 -47 -14 -79t-31.5 -57t-31.5 -48.5t-14 -53.5q0 -22 12 -37.5t30 -29t39 -27.5t39 -31.5t30 -41t12 -57.5q0 -38 -12.5 -65t-34 -44t-51.5 -25t-65 -8q-40 0 -67.5 7.5t-50.5 17.5q3 14 8 29 t11 29q22 -9 44.5 -16.5t51.5 -7.5q18 0 35.5 3t31 11.5t22 24t8.5 40.5q0 28 -12 45.5t-29.5 31t-38 25.5t-38 28t-29.5 38.5t-12 56.5q0 36 14.5 63.5t31.5 53.5t31.5 55t14.5 68q0 47 -27 70.5t-71 23.5q-37 0 -59.5 -11t-34.5 -33.5t-16 -58t-4 -83.5v-499 q-6 -1 -16.5 -1.5t-16.5 -0.5q-5 0 -16 0.5t-17 1.5v502z" />
<glyph unicode="&#xe0;" horiz-adv-x="513" d="M369 248q-17 2 -42.5 4.5t-48.5 2.5q-75 0 -116 -28t-41 -80q0 -33 12.5 -53t32.5 -30.5t44 -14t48 -3.5q31 0 58 3t53 8v191zM369 337q0 66 -31 96.5t-92 30.5q-40 0 -73 -5.5t-59 -13.5q-5 9 -8.5 26t-3.5 32q26 8 64 13.5t78 5.5q97 0 144 -42.5t47 -133.5v-337 q-35 -7 -85 -14t-95 -7q-93 0 -146.5 37t-53.5 120q0 40 15.5 71.5t43 53t66 32.5t84.5 11q36 0 62 -2.5t43 -4.5v31zM111 723q11 1 23 1.5t24 0.5h22q12 0 23 -2l117 -130q-18 -3 -33 -3q-23 0 -41 3z" />
<glyph unicode="&#xe1;" horiz-adv-x="513" d="M369 248q-17 2 -42.5 4.5t-48.5 2.5q-75 0 -116 -28t-41 -80q0 -33 12.5 -53t32.5 -30.5t44 -14t48 -3.5q31 0 58 3t53 8v191zM369 337q0 66 -31 96.5t-92 30.5q-40 0 -73 -5.5t-59 -13.5q-5 9 -8.5 26t-3.5 32q26 8 64 13.5t78 5.5q97 0 144 -42.5t47 -133.5v-337 q-35 -7 -85 -14t-95 -7q-93 0 -146.5 37t-53.5 120q0 40 15.5 71.5t43 53t66 32.5t84.5 11q36 0 62 -2.5t43 -4.5v31zM246 593q-18 -3 -41 -3q-15 0 -33 3l117 130q11 2 23 2h22q12 0 24 -0.5t23 -1.5z" />
<glyph unicode="&#xe2;" horiz-adv-x="513" d="M369 248q-17 2 -42.5 4.5t-48.5 2.5q-75 0 -116 -28t-41 -80q0 -33 12.5 -53t32.5 -30.5t44 -14t48 -3.5q31 0 58 3t53 8v191zM369 337q0 66 -31 96.5t-92 30.5q-40 0 -73 -5.5t-59 -13.5q-5 9 -8.5 26t-3.5 32q26 8 64 13.5t78 5.5q97 0 144 -42.5t47 -133.5v-337 q-35 -7 -85 -14t-95 -7q-93 0 -146.5 37t-53.5 120q0 40 15.5 71.5t43 53t66 32.5t84.5 11q36 0 62 -2.5t43 -4.5v31zM413 593q-17 -3 -34 -3q-9 0 -21 0.5t-22 2.5l-83 92l-83 -92q-11 -2 -22.5 -2.5t-20.5 -0.5q-18 0 -34 3l117 129q10 2 21.5 2.5t21.5 0.5t22 -0.5 t22 -2.5z" />
<glyph unicode="&#xe3;" horiz-adv-x="513" d="M369 248q-17 2 -42.5 4.5t-48.5 2.5q-75 0 -116 -28t-41 -80q0 -33 12.5 -53t32.5 -30.5t44 -14t48 -3.5q31 0 58 3t53 8v191zM369 337q0 66 -31 96.5t-92 30.5q-40 0 -73 -5.5t-59 -13.5q-5 9 -8.5 26t-3.5 32q26 8 64 13.5t78 5.5q97 0 144 -42.5t47 -133.5v-337 q-35 -7 -85 -14t-95 -7q-93 0 -146.5 37t-53.5 120q0 40 15.5 71.5t43 53t66 32.5t84.5 11q36 0 62 -2.5t43 -4.5v31zM114 616q-17 23 -24 46q15 17 36 31t51 14q24 0 43.5 -8t37.5 -17.5t36 -17.5t39 -8q17 0 31 7t34 25q16 -23 24 -48q-15 -16 -36.5 -29.5t-50.5 -13.5 q-23 0 -42.5 8t-37 17.5t-35.5 17.5t-38 8q-21 0 -35 -8t-33 -24z" />
<glyph unicode="&#xe4;" horiz-adv-x="513" d="M369 248q-17 2 -42.5 4.5t-48.5 2.5q-75 0 -116 -28t-41 -80q0 -33 12.5 -53t32.5 -30.5t44 -14t48 -3.5q31 0 58 3t53 8v191zM369 337q0 66 -31 96.5t-92 30.5q-40 0 -73 -5.5t-59 -13.5q-5 9 -8.5 26t-3.5 32q26 8 64 13.5t78 5.5q97 0 144 -42.5t47 -133.5v-337 q-35 -7 -85 -14t-95 -7q-93 0 -146.5 37t-53.5 120q0 40 15.5 71.5t43 53t66 32.5t84.5 11q36 0 62 -2.5t43 -4.5v31zM123 613q-3 21 -3 42q0 22 3 43q19 3 40 3t41 -3q3 -21 3 -42q0 -22 -3 -43q-20 -3 -40 -3q-22 0 -41 3zM314 613q-3 21 -3 42q0 22 3 43q19 3 40 3t41 -3 q3 -21 3 -42q0 -22 -3 -43q-20 -3 -40 -3q-22 0 -41 3z" />
<glyph unicode="&#xe5;" horiz-adv-x="513" d="M369 248q-17 2 -42.5 4.5t-48.5 2.5q-75 0 -116 -28t-41 -80q0 -33 12.5 -53t32.5 -30.5t44 -14t48 -3.5q31 0 58 3t53 8v191zM369 337q0 66 -31 96.5t-92 30.5q-40 0 -73 -5.5t-59 -13.5q-5 9 -8.5 26t-3.5 32q26 8 64 13.5t78 5.5q97 0 144 -42.5t47 -133.5v-337 q-35 -7 -85 -14t-95 -7q-93 0 -146.5 37t-53.5 120q0 40 15.5 71.5t43 53t66 32.5t84.5 11q36 0 62 -2.5t43 -4.5v31zM161 691q0 43 27.5 72.5t73.5 29.5q47 0 74.5 -29.5t27.5 -72.5q0 -42 -27 -71.5t-75 -29.5q-47 0 -74 29.5t-27 71.5zM211 691q0 -26 12 -41.5t39 -15.5 q28 0 40 15.5t12 41.5t-12 42t-40 16q-27 0 -39 -16t-12 -42z" />
<glyph unicode="&#xe6;" horiz-adv-x="849" d="M364 337q0 66 -31.5 96.5t-92.5 30.5q-40 0 -73 -5.5t-59 -13.5q-5 9 -8.5 26t-3.5 32q26 8 64 13.5t78 5.5q66 0 106 -22.5t65 -73.5q26 44 70.5 70t104.5 26q50 0 89 -17t65.5 -47.5t40 -72.5t13.5 -92q0 -9 -0.5 -23t-1.5 -24h-364q0 -54 11 -92t33.5 -62t58 -34.5 t85.5 -10.5q38 0 70.5 6.5t63.5 17.5q5 -11 8 -27t4 -29q-29 -13 -68 -20t-85 -7q-54 0 -99.5 12t-78.5 41q-31 -21 -82 -37t-106 -16q-44 0 -79 9t-60.5 28t-39 49t-13.5 71q0 40 15.5 71t43 52t66 32t84.5 11q35 0 62 -2t44 -4v32zM362 247q-17 2 -42.5 4t-47.5 2 q-75 0 -116 -27t-41 -79q0 -33 12.5 -53t31 -30.5t41 -14t42.5 -3.5q16 0 36 1.5t40 6t40 12.5t37 21q-17 26 -24.5 64t-7.5 76zM726 301q0 31 -8 60.5t-25 52.5t-44 36.5t-65 13.5q-70 0 -109 -42.5t-47 -120.5h298z" />
<glyph unicode="&#xe7;" horiz-adv-x="480" d="M426 64q5 -10 9.5 -27t6.5 -28q-25 -9 -57 -15t-71 -6h-12l-20 -49q5 1 10 1h9q51 0 75.5 -24t24.5 -61q0 -48 -37 -72t-100 -24q-13 0 -34.5 2.5t-38.5 10.5q0 13 2 25.5t9 23.5q14 -5 30 -8.5t32 -3.5q34 0 54 11.5t20 35.5q0 22 -19.5 31t-51.5 9q-14 0 -27 -2l-25 -4 l-5 4l37 100q-93 17 -140.5 83t-47.5 178q0 57 16 105.5t47 84.5t77.5 56.5t107.5 20.5q38 0 72.5 -5.5t54.5 -12.5q0 -13 -3.5 -30t-7.5 -27q-20 7 -50.5 12t-65.5 5q-45 0 -78.5 -15.5t-56 -43.5t-33.5 -66t-11 -84q0 -108 51.5 -158.5t139.5 -50.5q30 0 57.5 5t49.5 13z " />
<glyph unicode="&#xe8;" horiz-adv-x="553" d="M130 245q0 -102 47 -150t141 -48q38 0 70.5 6.5t63.5 17.5q5 -11 8 -27t4 -29q-29 -13 -68 -20t-85 -7q-66 0 -113.5 19.5t-78 54.5t-45 83.5t-14.5 106.5q0 56 13.5 105t41 86t70.5 58t103 21q50 0 89 -17t65.5 -47.5t40 -73t13.5 -92.5q0 -9 -0.5 -23t-1.5 -24h-364z M430 300q0 31 -8 61t-25 52.5t-44 36.5t-65 14q-70 0 -109 -43t-47 -121h298zM157 723q11 1 23 1.5t24 0.5h22q12 0 23 -2l117 -130q-18 -3 -33 -3q-23 0 -41 3z" />
<glyph unicode="&#xe9;" horiz-adv-x="553" d="M130 245q0 -102 47 -150t141 -48q38 0 70.5 6.5t63.5 17.5q5 -11 8 -27t4 -29q-29 -13 -68 -20t-85 -7q-66 0 -113.5 19.5t-78 54.5t-45 83.5t-14.5 106.5q0 56 13.5 105t41 86t70.5 58t103 21q50 0 89 -17t65.5 -47.5t40 -73t13.5 -92.5q0 -9 -0.5 -23t-1.5 -24h-364z M430 300q0 31 -8 61t-25 52.5t-44 36.5t-65 14q-70 0 -109 -43t-47 -121h298zM285 593q-18 -3 -41 -3q-15 0 -33 3l117 130q11 2 23 2h22q12 0 24 -0.5t23 -1.5z" />
<glyph unicode="&#xea;" horiz-adv-x="553" d="M130 245q0 -102 47 -150t141 -48q38 0 70.5 6.5t63.5 17.5q5 -11 8 -27t4 -29q-29 -13 -68 -20t-85 -7q-66 0 -113.5 19.5t-78 54.5t-45 83.5t-14.5 106.5q0 56 13.5 105t41 86t70.5 58t103 21q50 0 89 -17t65.5 -47.5t40 -73t13.5 -92.5q0 -9 -0.5 -23t-1.5 -24h-364z M430 300q0 31 -8 61t-25 52.5t-44 36.5t-65 14q-70 0 -109 -43t-47 -121h298zM445 593q-17 -3 -34 -3q-9 0 -21 0.5t-22 2.5l-83 92l-83 -92q-11 -2 -22.5 -2.5t-20.5 -0.5q-18 0 -34 3l117 129q10 2 21.5 2.5t21.5 0.5t22 -0.5t22 -2.5z" />
<glyph unicode="&#xeb;" horiz-adv-x="553" d="M130 245q0 -102 47 -150t141 -48q38 0 70.5 6.5t63.5 17.5q5 -11 8 -27t4 -29q-29 -13 -68 -20t-85 -7q-66 0 -113.5 19.5t-78 54.5t-45 83.5t-14.5 106.5q0 56 13.5 105t41 86t70.5 58t103 21q50 0 89 -17t65.5 -47.5t40 -73t13.5 -92.5q0 -9 -0.5 -23t-1.5 -24h-364z M430 300q0 31 -8 61t-25 52.5t-44 36.5t-65 14q-70 0 -109 -43t-47 -121h298zM147 613q-3 21 -3 42q0 22 3 43q19 3 40 3t41 -3q3 -21 3 -42q0 -22 -3 -43q-20 -3 -40 -3q-22 0 -41 3zM338 613q-3 21 -3 42q0 22 3 43q19 3 40 3t41 -3q3 -21 3 -42q0 -22 -3 -43 q-20 -3 -40 -3q-22 0 -41 3z" />
<glyph unicode="&#xec;" horiz-adv-x="273" d="M119 454h-64q-1 5 -1.5 12t-0.5 15t0.5 16t1.5 13h130v-510q-6 -1 -16.5 -1.5t-16.5 -0.5q-5 0 -16 0.5t-17 1.5v454zM15 723q11 1 23 1.5t24 0.5h22q12 0 23 -2l117 -130q-18 -3 -33 -3q-23 0 -41 3z" />
<glyph unicode="&#xed;" horiz-adv-x="273" d="M119 454h-64q-1 5 -1.5 12t-0.5 15t0.5 16t1.5 13h130v-510q-6 -1 -16.5 -1.5t-16.5 -0.5q-5 0 -16 0.5t-17 1.5v454zM127 593q-18 -3 -41 -3q-15 0 -33 3l117 130q11 2 23 2h22q12 0 24 -0.5t23 -1.5z" />
<glyph unicode="&#xee;" horiz-adv-x="273" d="M119 454h-64q-1 5 -1.5 12t-0.5 15t0.5 16t1.5 13h130v-510q-6 -1 -16.5 -1.5t-16.5 -0.5q-5 0 -16 0.5t-17 1.5v454zM298 593q-17 -3 -34 -3q-9 0 -21 0.5t-22 2.5l-83 92l-83 -92q-11 -2 -22.5 -2.5t-20.5 -0.5q-18 0 -34 3l117 129q10 2 21.5 2.5t21.5 0.5t22 -0.5 t22 -2.5z" />
<glyph unicode="&#xef;" horiz-adv-x="273" d="M119 454h-64q-1 5 -1.5 12t-0.5 15t0.5 16t1.5 13h130v-510q-6 -1 -16.5 -1.5t-16.5 -0.5q-5 0 -16 0.5t-17 1.5v454zM2 613q-3 21 -3 42q0 22 3 43q19 3 40 3t41 -3q3 -21 3 -42q0 -22 -3 -43q-20 -3 -40 -3q-22 0 -41 3zM193 613q-3 21 -3 42q0 22 3 43q19 3 40 3 t41 -3q3 -21 3 -42q0 -22 -3 -43q-20 -3 -40 -3q-22 0 -41 3z" />
<glyph unicode="&#xf0;" horiz-adv-x="588" d="M282 645q-27 14 -57 22t-63 14q-1 5 -1 22q0 7 2 17.5t5 16.5q101 -11 173 -55l94 56q11 -8 19 -22l14 -24l-78 -46q67 -61 103 -154t36 -211q0 -137 -57 -215t-178 -78q-60 0 -104 18.5t-73.5 51.5t-43.5 79t-14 101q0 53 14 99t42.5 79.5t70.5 52.5t99 19q37 0 76 -11 t65 -33q5 -5 9.5 -10t9.5 -10q-2 8 -4.5 16t-5.5 16q-19 54 -43.5 92t-56.5 64l-104 -63q-12 11 -18.5 23t-11.5 24zM294 49q83 0 121.5 51t38.5 138q0 94 -39 141t-121 47q-74 0 -117 -47t-43 -141q0 -87 39 -138t121 -51z" />
<glyph unicode="&#xf1;" horiz-adv-x="572" d="M88 510q8 1 15.5 1.5t14.5 0.5q8 0 15 -0.5t15 -1.5q2 -18 3 -45t1 -47q10 18 26 36.5t37.5 33.5t49.5 24.5t61 9.5q88 0 128 -52.5t40 -147.5v-322q-6 -1 -16.5 -1.5t-16.5 -0.5q-5 0 -16 0.5t-17 1.5v302q0 85 -26.5 122t-79.5 37q-35 0 -66 -14t-53.5 -40.5 t-35.5 -65.5t-13 -89v-252q-6 -1 -16.5 -1.5t-16.5 -0.5q-5 0 -16 0.5t-17 1.5v510zM144 616q-17 23 -24 46q15 17 36 31t51 14q24 0 43.5 -8t37.5 -17.5t36 -17.5t39 -8q17 0 31 7t34 25q16 -23 24 -48q-15 -16 -36.5 -29.5t-50.5 -13.5q-23 0 -42.5 8t-37 17.5t-35.5 17.5 t-38 8q-21 0 -35 -8t-33 -24z" />
<glyph unicode="&#xf2;" horiz-adv-x="574" d="M287 46q80 0 119.5 56t39.5 153t-39.5 153t-119.5 56t-119.5 -56t-39.5 -153t39.5 -153t119.5 -56zM287 -12q-57 0 -100 20.5t-71.5 56.5t-42.5 85t-14 105t14 105t42.5 85t71.5 56.5t100 20.5t99.5 -20.5t71 -56.5t43 -85t14.5 -105t-14.5 -105t-43 -85t-71 -56.5 t-99.5 -20.5zM156 723q11 1 23 1.5t24 0.5h22q12 0 23 -2l117 -130q-18 -3 -33 -3q-23 0 -41 3z" />
<glyph unicode="&#xf3;" horiz-adv-x="574" d="M287 46q80 0 119.5 56t39.5 153t-39.5 153t-119.5 56t-119.5 -56t-39.5 -153t39.5 -153t119.5 -56zM287 -12q-57 0 -100 20.5t-71.5 56.5t-42.5 85t-14 105t14 105t42.5 85t71.5 56.5t100 20.5t99.5 -20.5t71 -56.5t43 -85t14.5 -105t-14.5 -105t-43 -85t-71 -56.5 t-99.5 -20.5zM276 593q-18 -3 -41 -3q-15 0 -33 3l117 130q11 2 23 2h22q12 0 24 -0.5t23 -1.5z" />
<glyph unicode="&#xf4;" horiz-adv-x="574" d="M287 46q80 0 119.5 56t39.5 153t-39.5 153t-119.5 56t-119.5 -56t-39.5 -153t39.5 -153t119.5 -56zM287 -12q-57 0 -100 20.5t-71.5 56.5t-42.5 85t-14 105t14 105t42.5 85t71.5 56.5t100 20.5t99.5 -20.5t71 -56.5t43 -85t14.5 -105t-14.5 -105t-43 -85t-71 -56.5 t-99.5 -20.5zM447 593q-17 -3 -34 -3q-9 0 -21 0.5t-22 2.5l-83 92l-83 -92q-11 -2 -22.5 -2.5t-20.5 -0.5q-18 0 -34 3l117 129q10 2 21.5 2.5t21.5 0.5t22 -0.5t22 -2.5z" />
<glyph unicode="&#xf5;" horiz-adv-x="574" d="M287 46q80 0 119.5 56t39.5 153t-39.5 153t-119.5 56t-119.5 -56t-39.5 -153t39.5 -153t119.5 -56zM287 -12q-57 0 -100 20.5t-71.5 56.5t-42.5 85t-14 105t14 105t42.5 85t71.5 56.5t100 20.5t99.5 -20.5t71 -56.5t43 -85t14.5 -105t-14.5 -105t-43 -85t-71 -56.5 t-99.5 -20.5zM145 616q-17 23 -24 46q15 17 36 31t51 14q24 0 43.5 -8t37.5 -17.5t36 -17.5t39 -8q17 0 31 7t34 25q16 -23 24 -48q-15 -16 -36.5 -29.5t-50.5 -13.5q-23 0 -42.5 8t-37 17.5t-35.5 17.5t-38 8q-21 0 -35 -8t-33 -24z" />
<glyph unicode="&#xf6;" horiz-adv-x="574" d="M287 46q80 0 119.5 56t39.5 153t-39.5 153t-119.5 56t-119.5 -56t-39.5 -153t39.5 -153t119.5 -56zM287 -12q-57 0 -100 20.5t-71.5 56.5t-42.5 85t-14 105t14 105t42.5 85t71.5 56.5t100 20.5t99.5 -20.5t71 -56.5t43 -85t14.5 -105t-14.5 -105t-43 -85t-71 -56.5 t-99.5 -20.5zM151 613q-3 21 -3 42q0 22 3 43q19 3 40 3t41 -3q3 -21 3 -42q0 -22 -3 -43q-20 -3 -40 -3q-22 0 -41 3zM342 613q-3 21 -3 42q0 22 3 43q19 3 40 3t41 -3q3 -21 3 -42q0 -22 -3 -43q-20 -3 -40 -3q-22 0 -41 3z" />
<glyph unicode="&#xf7;" d="M237 517q0 24 16.5 41.5t41.5 17.5q24 0 41.5 -17.5t17.5 -41.5q0 -25 -17.5 -41.5t-41.5 -16.5q-25 0 -41.5 16.5t-16.5 41.5zM237 189q0 24 16.5 41.5t41.5 17.5q24 0 41.5 -17.5t17.5 -41.5q0 -25 -17.5 -41.5t-41.5 -16.5q-25 0 -41.5 16.5t-16.5 41.5zM513 386 q1 -5 1.5 -16t0.5 -19t-0.5 -18t-1.5 -15h-426q-1 5 -1.5 15t-0.5 18t0.5 19t1.5 16h426z" />
<glyph unicode="&#xf8;" horiz-adv-x="574" d="M116 64q-29 36 -43 85t-14 106q0 56 14 105t42.5 85t71.5 56.5t100 20.5q46 0 83 -14t64 -39l32 41q12 3 30 3q16 0 31 -3l-61 -77q49 -72 49 -178q0 -56 -14.5 -105t-43 -85t-71 -56.5t-99.5 -20.5q-82 0 -136 42l-24 -30q-14 -3 -30 -3q-18 0 -31 3zM396 420 q-20 21 -47 32.5t-62 11.5q-80 0 -119.5 -56t-39.5 -153q0 -86 30 -138zM189 79q37 -33 98 -33q80 0 119.5 56t39.5 153q0 72 -23 123z" />
<glyph unicode="&#xf9;" horiz-adv-x="575" d="M84 510q6 1 17 1.5t16 0.5q6 0 16.5 -0.5t16.5 -1.5v-287q0 -54 11 -88.5t32.5 -54t52.5 -27t70 -7.5q33 0 59 3.5t46 9.5v451q6 1 17 1.5t16 0.5q6 0 16.5 -0.5t16.5 -1.5v-497q-37 -10 -82.5 -17.5t-93.5 -7.5q-47 0 -88.5 9t-72 34.5t-48.5 70.5t-18 117v291zM146 723 q11 1 23 1.5t24 0.5h22q12 0 23 -2l117 -130q-18 -3 -33 -3q-23 0 -41 3z" />
<glyph unicode="&#xfa;" horiz-adv-x="575" d="M84 510q6 1 17 1.5t16 0.5q6 0 16.5 -0.5t16.5 -1.5v-287q0 -54 11 -88.5t32.5 -54t52.5 -27t70 -7.5q33 0 59 3.5t46 9.5v451q6 1 17 1.5t16 0.5q6 0 16.5 -0.5t16.5 -1.5v-497q-37 -10 -82.5 -17.5t-93.5 -7.5q-47 0 -88.5 9t-72 34.5t-48.5 70.5t-18 117v291zM301 593 q-18 -3 -41 -3q-15 0 -33 3l117 130q11 2 23 2h22q12 0 24 -0.5t23 -1.5z" />
<glyph unicode="&#xfb;" horiz-adv-x="575" d="M84 510q6 1 17 1.5t16 0.5q6 0 16.5 -0.5t16.5 -1.5v-287q0 -54 11 -88.5t32.5 -54t52.5 -27t70 -7.5q33 0 59 3.5t46 9.5v451q6 1 17 1.5t16 0.5q6 0 16.5 -0.5t16.5 -1.5v-497q-37 -10 -82.5 -17.5t-93.5 -7.5q-47 0 -88.5 9t-72 34.5t-48.5 70.5t-18 117v291zM447 593 q-17 -3 -34 -3q-9 0 -21 0.5t-22 2.5l-83 92l-83 -92q-11 -2 -22.5 -2.5t-20.5 -0.5q-18 0 -34 3l117 129q10 2 21.5 2.5t21.5 0.5t22 -0.5t22 -2.5z" />
<glyph unicode="&#xfc;" horiz-adv-x="575" d="M84 510q6 1 17 1.5t16 0.5q6 0 16.5 -0.5t16.5 -1.5v-287q0 -54 11 -88.5t32.5 -54t52.5 -27t70 -7.5q33 0 59 3.5t46 9.5v451q6 1 17 1.5t16 0.5q6 0 16.5 -0.5t16.5 -1.5v-497q-37 -10 -82.5 -17.5t-93.5 -7.5q-47 0 -88.5 9t-72 34.5t-48.5 70.5t-18 117v291zM156 613 q-3 21 -3 42q0 22 3 43q19 3 40 3t41 -3q3 -21 3 -42q0 -22 -3 -43q-20 -3 -40 -3q-22 0 -41 3zM347 613q-3 21 -3 42q0 22 3 43q19 3 40 3t41 -3q3 -21 3 -42q0 -22 -3 -43q-20 -3 -40 -3q-22 0 -41 3z" />
<glyph unicode="&#xfd;" horiz-adv-x="515" d="M257 -2h-19q-9 0 -20.5 0.5t-17.5 1.5l-184 510q6 1 17 1.5t21 0.5q8 0 20 -0.5t18 -1.5l169 -496l166 496q6 1 16 1.5t18 0.5t18 -0.5t16 -1.5l-224 -661q-18 -55 -51 -77t-78 -22q-21 0 -42.5 4t-35.5 8q0 31 15 56q8 -3 24 -6.5t36 -3.5q29 0 46.5 14t30.5 52z M260 593q-18 -3 -41 -3q-15 0 -33 3l117 130q11 2 23 2h22q12 0 24 -0.5t23 -1.5z" />
<glyph unicode="&#xfe;" horiz-adv-x="589" d="M88 735q6 1 16.5 1.5t16.5 0.5t16.5 -0.5t16.5 -1.5v-295q21 32 60.5 57t102.5 25q47 0 86 -14.5t66.5 -45.5t43 -78t15.5 -113t-18 -118.5t-52.5 -89t-85 -56t-115.5 -19.5q-24 0 -52 4t-51 12v-240q-6 -1 -17 -1.5t-16 -0.5q-6 0 -16.5 0.5t-16.5 1.5v971zM154 65 q23 -9 47.5 -13.5t65.5 -4.5q39 0 74 12.5t61 39.5t41 68.5t15 99.5q0 92 -34.5 144t-111.5 52q-24 0 -52 -8t-51.5 -27.5t-39 -51t-15.5 -79.5v-232z" />
<glyph unicode="&#xff;" horiz-adv-x="515" d="M257 -2h-19q-9 0 -20.5 0.5t-17.5 1.5l-184 510q6 1 17 1.5t21 0.5q8 0 20 -0.5t18 -1.5l169 -496l166 496q6 1 16 1.5t18 0.5t18 -0.5t16 -1.5l-224 -661q-18 -55 -51 -77t-78 -22q-21 0 -42.5 4t-35.5 8q0 31 15 56q8 -3 24 -6.5t36 -3.5q29 0 46.5 14t30.5 52z M121 613q-3 21 -3 42q0 22 3 43q19 3 40 3t41 -3q3 -21 3 -42q0 -22 -3 -43q-20 -3 -40 -3q-22 0 -41 3zM312 613q-3 21 -3 42q0 22 3 43q19 3 40 3t41 -3q3 -21 3 -42q0 -22 -3 -43q-20 -3 -40 -3q-22 0 -41 3z" />
<glyph unicode="&#x131;" horiz-adv-x="273" d="M119 454h-64q-1 5 -1.5 12t-0.5 15t0.5 16t1.5 13h130v-510q-6 -1 -16.5 -1.5t-16.5 -0.5q-5 0 -16 0.5t-17 1.5v454z" />
<glyph unicode="&#x152;" horiz-adv-x="915" d="M870 63q1 -6 1.5 -14.5t0.5 -16.5q0 -7 -0.5 -16.5t-1.5 -15.5h-379q-28 -6 -63.5 -9t-66.5 -3q-75 0 -131.5 27.5t-94 77t-56 118t-18.5 149.5t19.5 149t58 117.5t95.5 77t132 27.5q31 0 62.5 -2.5t58.5 -9.5h374q1 -6 1.5 -14.5t0.5 -16.5q0 -7 -0.5 -16.5t-1.5 -15.5 h-316v-243h254q1 -6 1.5 -14.5t0.5 -16.5q0 -7 -0.5 -16.5t-1.5 -15.5h-254v-287h325zM476 656q-26 7 -52.5 9.5t-57.5 2.5q-58 0 -101.5 -22.5t-73 -63t-44 -97.5t-14.5 -125t14 -125t42.5 -98t71 -63.5t100.5 -22.5q31 0 60 2t55 10v593z" />
<glyph unicode="&#x153;" horiz-adv-x="939" d="M516 245q0 -102 47 -150t141 -48q38 0 70.5 6.5t63.5 17.5q5 -11 8 -27t4 -29q-29 -13 -68 -20t-85 -7q-82 0 -137 32t-81 92q-27 -57 -74.5 -90.5t-116.5 -33.5q-57 0 -100 20.5t-71.5 56.5t-42.5 85t-14 105t14 105t42.5 85t71.5 56.5t100 20.5q69 0 118 -31.5 t75 -86.5q25 55 72.5 86.5t120.5 31.5q50 0 89 -18.5t65.5 -50t40 -73.5t13.5 -88q0 -9 -0.5 -23t-1.5 -24h-364zM288 46q80 0 119.5 56t39.5 153t-39.5 153t-119.5 56t-119.5 -56t-39.5 -153t39.5 -153t119.5 -56zM816 300q0 35 -8 65t-25 51.5t-44 34t-65 12.5 q-70 0 -109 -42.5t-47 -120.5h298z" />
<glyph unicode="&#x178;" horiz-adv-x="574" d="M255 267l-231 452q6 1 17 1.5t21 0.5q9 0 21.5 -0.5t19.5 -1.5l188 -380l185 380q8 1 17.5 1.5t18.5 0.5q10 0 21 -0.5t17 -1.5l-226 -452v-267q-7 -1 -16 -1.5t-18 -0.5q-10 0 -19.5 0.5t-15.5 1.5v267zM143 788q-3 22 -3 44t3 45q22 3 43 3q24 0 44 -3q3 -23 3 -44 q0 -23 -3 -45q-20 -3 -43 -3q-22 0 -44 3zM352 788q-3 22 -3 44t3 45q19 3 43 3q21 0 44 -3q3 -23 3 -44q0 -23 -3 -45q-23 -3 -43 -3q-25 0 -44 3z" />
<glyph unicode="&#x2c6;" horiz-adv-x="498" d="M409 593q-17 -3 -34 -3q-9 0 -21 0.5t-22 2.5l-83 92l-83 -92q-11 -2 -22.5 -2.5t-20.5 -0.5q-18 0 -34 3l117 129q10 2 21.5 2.5t21.5 0.5t22 -0.5t22 -2.5z" />
<glyph unicode="&#x2da;" horiz-adv-x="504" d="M151 691q0 43 27.5 72.5t73.5 29.5q47 0 74.5 -29.5t27.5 -72.5q0 -42 -27 -71.5t-75 -29.5q-47 0 -74 29.5t-27 71.5zM201 691q0 -26 12 -41.5t39 -15.5q28 0 40 15.5t12 41.5t-12 42t-40 16q-27 0 -39 -16t-12 -42z" />
<glyph unicode="&#x2dc;" horiz-adv-x="500" d="M108 616q-17 23 -24 46q15 17 36 31t51 14q24 0 43.5 -8t37.5 -17.5t36 -17.5t39 -8q17 0 31 7t34 25q16 -23 24 -48q-15 -16 -36.5 -29.5t-50.5 -13.5q-23 0 -42.5 8t-37 17.5t-35.5 17.5t-38 8q-21 0 -35 -8t-33 -24z" />
<glyph unicode="&#x2000;" horiz-adv-x="468" />
<glyph unicode="&#x2001;" horiz-adv-x="936" />
<glyph unicode="&#x2002;" horiz-adv-x="468" />
<glyph unicode="&#x2003;" horiz-adv-x="936" />
<glyph unicode="&#x2004;" horiz-adv-x="312" />
<glyph unicode="&#x2005;" horiz-adv-x="234" />
<glyph unicode="&#x2006;" horiz-adv-x="156" />
<glyph unicode="&#x2007;" horiz-adv-x="156" />
<glyph unicode="&#x2008;" horiz-adv-x="117" />
<glyph unicode="&#x2009;" horiz-adv-x="187" />
<glyph unicode="&#x200a;" horiz-adv-x="52" />
<glyph unicode="&#x2010;" horiz-adv-x="353" d="M308 318q1 -5 1.5 -15.5t0.5 -18.5t-0.5 -18t-1.5 -15h-263q-1 5 -1.5 15t-0.5 18t0.5 18.5t1.5 15.5h263z" />
<glyph unicode="&#x2011;" horiz-adv-x="353" d="M308 318q1 -5 1.5 -15.5t0.5 -18.5t-0.5 -18t-1.5 -15h-263q-1 5 -1.5 15t-0.5 18t0.5 18.5t1.5 15.5h263z" />
<glyph unicode="&#x2013;" horiz-adv-x="500" d="M500 318q1 -7 1.5 -15.5t0.5 -17.5q0 -10 -0.5 -19t-1.5 -15h-500q-1 7 -1.5 16.5t-0.5 17.5q0 9 0.5 17.5t1.5 15.5h500z" />
<glyph unicode="&#x2014;" horiz-adv-x="1000" d="M1000 318q1 -7 1.5 -15.5t0.5 -17.5q0 -10 -0.5 -19t-1.5 -15h-1000q-1 7 -1.5 16.5t-0.5 17.5q0 9 0.5 17.5t1.5 15.5h1000z" />
<glyph unicode="&#x2018;" horiz-adv-x="223" d="M50 719q9 1 18 1.5t17 0.5t17 -0.5t17 -1.5l54 -198q-8 -2 -17 -2h-17h-17q-8 0 -18 2z" />
<glyph unicode="&#x2019;" horiz-adv-x="223" d="M104 719q9 1 17.5 1.5t16.5 0.5t17 -0.5t18 -1.5l-54 -198q-10 -2 -19 -2h-16h-18q-8 0 -16 2z" />
<glyph unicode="&#x201a;" horiz-adv-x="223" d="M104 85q8 1 17 1.5t17 0.5t17 -0.5t18 -1.5l-54 -198q-10 -2 -19 -2h-16h-18q-8 0 -16 2z" />
<glyph unicode="&#x201c;" horiz-adv-x="405" d="M119.01 719q-7.99805 1 -16.9971 1.5t-16.998 0.5t-16.998 -0.5t-17.998 -1.5l53.9932 -198q9.99902 -2 18.998 -2h15.998h17.998q7.99902 0 15.998 2zM301.01 719q-7.99805 1 -16.9971 1.5t-16.998 0.5t-16.998 -0.5t-17.998 -1.5l53.9932 -198q9.99902 -2 18.998 -2 h15.998h17.998q7.99902 0 15.998 2z" />
<glyph unicode="&#x201d;" horiz-adv-x="405" d="M104 719q8 1 17 1.5t17 0.5t17 -0.5t18 -1.5l-54 -198q-10 -2 -19 -2h-16h-18q-8 0 -16 2zM286 719q8 1 17 1.5t17 0.5t17 -0.5t18 -1.5l-54 -198q-10 -2 -19 -2h-16h-18q-8 0 -16 2z" />
<glyph unicode="&#x201e;" horiz-adv-x="405" d="M104 85q8 1 17 1.5t17 0.5t17 -0.5t18 -1.5l-54 -198q-10 -2 -19 -2h-16h-18q-8 0 -16 2zM286 85q8 1 17 1.5t17 0.5t17 -0.5t18 -1.5l-54 -198q-10 -2 -19 -2h-16h-18q-8 0 -16 2z" />
<glyph unicode="&#x2022;" horiz-adv-x="375" d="M75 380q0 23 9 43.5t24 35.5t35.5 24t44.5 9q23 0 43.5 -9t35.5 -24t24 -35.5t9 -43.5q0 -24 -9 -44.5t-24 -35.5t-35.5 -24t-43.5 -9q-24 0 -44.5 9t-35.5 24t-24 35.5t-9 44.5z" />
<glyph unicode="&#x2026;" horiz-adv-x="661" d="M60 0q-3 21 -3 42q0 22 3 43q21 3 42 3q22 0 43 -3q3 -21 3 -42q0 -22 -3 -43q-21 -3 -42 -3q-22 0 -43 3zM288 0q-3 21 -3 42q0 22 3 43q21 3 42 3q22 0 43 -3q3 -21 3 -42q0 -22 -3 -43q-21 -3 -42 -3q-22 0 -43 3zM516 0q-3 21 -3 42q0 22 3 43q21 3 42 3q22 0 43 -3 q3 -21 3 -42q0 -22 -3 -43q-21 -3 -42 -3q-22 0 -43 3z" />
<glyph unicode="&#x202f;" horiz-adv-x="187" />
<glyph unicode="&#x2039;" horiz-adv-x="359" d="M55 267l175 221q18 3 37 3t39 -3l-171 -219l171 -223q-18 -3 -37 -3q-20 0 -39 3z" />
<glyph unicode="&#x203a;" horiz-adv-x="359" d="M304 267l-175 -221q-18 -3 -37 -3q-20 0 -39 3l171 219l-171 223q18 3 37 3t39 -3z" />
<glyph unicode="&#x2044;" horiz-adv-x="220" d="M-97 0q-10 -2 -19 -2h-18h-18q-10 0 -18 2l484 707q8 1 16.5 1.5t16.5 0.5q10 0 19.5 -0.5t19.5 -1.5z" />
<glyph unicode="&#x205f;" horiz-adv-x="234" />
<glyph unicode="&#x2070;" horiz-adv-x="450" d="M409 507q0 -45 -11.5 -84t-34 -67.5t-57.5 -44.5t-81 -16t-80.5 16t-57 44.5t-34 67.5t-11.5 84t11.5 83.5t34 67t57 45t81.5 16.5q46 0 80.5 -16.5t57 -45t34 -67t11.5 -83.5zM112 507q0 -75 26.5 -115t86.5 -40q58 0 86 40t28 115t-26.5 115t-86.5 40q-58 0 -86 -40 t-28 -115z" />
<glyph unicode="&#x2074;" horiz-adv-x="450" d="M146 445h127v86q15 3 29 3q13 0 30 -3v-86h52q3 -11 3 -28q0 -8 -0.5 -15.5t-2.5 -12.5h-52v-82q-8 -1 -14 -1.5t-12 -0.5q-8 0 -16 0.5t-17 1.5v82h-212l-6 8l167 324q29 -5 57 -18z" />
<glyph unicode="&#x20ac;" d="M96 346q0 15 0.5 30t1.5 29h-70q-4 12 -4 28q0 17 4 30h78q23 125 98.5 190.5t199.5 65.5q63 0 105 -9t61 -15q-2 -18 -5.5 -30t-10.5 -29q-31 12 -71 17t-78 5q-93 0 -148.5 -50t-75.5 -145h291q3 -14 3 -27q0 -16 -3 -31h-300q-1 -14 -1.5 -29t-0.5 -30v-22 q0 -10 1 -20h301q3 -14 3 -27q0 -16 -3 -31h-293q20 -103 80.5 -149.5t151.5 -46.5q47 0 85.5 9t64.5 23q8 -15 14 -29t9 -29q-34 -17 -81 -26.5t-99 -9.5q-125 0 -202 65t-98 193h-76q-4 12 -4 28q0 17 4 30h69q-1 10 -1 20v22z" />
<glyph unicode="&#x2122;" horiz-adv-x="845" d="M159 651h-125q-2 8 -2.5 13.5t-0.5 13.5t0.5 14.5t2.5 14.5h308q2 -8 2.5 -14t0.5 -14q0 -13 -3 -28h-125v-344q-8 -2 -14.5 -2.5t-14.5 -0.5h-14q-8 0 -15 2v345zM409 707q8 1 15.5 1.5t15.5 0.5q9 0 18 -0.5t17 -1.5l117 -240l116 240q8 1 16 1.5t16 0.5q9 0 17.5 -0.5 t16.5 -1.5l18 -400q-8 -2 -14 -2.5t-14 -0.5h-14q-8 0 -15 2l-16 294l-109 -215q-6 -1 -11 -1.5t-10 -0.5t-10 0.5t-11 1.5l-105 214l-14 -292q-8 -2 -14.5 -2.5t-14.5 -0.5h-14q-8 0 -16 2z" />
<glyph unicode="&#x2212;" d="M513 386q1 -5 1.5 -16t0.5 -19t-0.5 -18t-1.5 -15h-426q-1 5 -1.5 15t-0.5 18t0.5 19t1.5 16h426z" />
<glyph horiz-adv-x="500" d="M167 845q-23 0 -37 -9t-31 -24q-17 20 -25 44q15 16 39 31.5t53 15.5q22 0 44.5 -9t44 -19.5t42 -19t40.5 -8.5t33.5 8.5t31.5 25.5q8 -11 14 -22.5t11 -23.5q-16 -15 -39.5 -29.5t-53.5 -14.5q-22 0 -43.5 8.5t-42.5 18.5l-42 18q-20 9 -39 9z" />
<glyph horiz-adv-x="500" d="M102 788q-3 22 -3 44t3 45q22 3 43 3q24 0 44 -3q3 -23 3 -44q0 -23 -3 -45q-20 -3 -43 -3q-22 0 -44 3zM311 788q-3 22 -3 44t3 45q19 3 43 3q21 0 44 -3q3 -23 3 -44q0 -23 -3 -45q-23 -3 -43 -3q-25 0 -44 3z" />
<glyph horiz-adv-x="498" d="M410 778q-9 -2 -19.5 -2.5t-18.5 -0.5t-19.5 0.5t-23.5 2.5l-79 70l-80 -70q-24 -3 -43 -3q-8 0 -19 0.5t-21 2.5l126 111q18 3 37 3q17 0 37 -3z" />
<glyph horiz-adv-x="500" d="M224 778q-18 -3 -43 -3q-17 0 -35 3l111 111q22 3 47 3q26 0 49 -3z" />
<glyph horiz-adv-x="500" d="M146 889q22 3 49 3q24 0 47 -3l111 -111q-18 -3 -35 -3q-25 0 -43 3z" />
</font>
</defs>
</svg>
